×

¿Problemas para descargar con Mozilla, EDGE? Deshabilita la opción "Abrir vinculos en una pestaña nueva" tal como lo muestra ésta imagen.

Uuups! 2 La aventura continúa (2020) HD 1080p Latino

247 vistas

Información de Uuups! 2 La aventura continúa (2020) HD 1080p Latino

Datos de la película

  • Calidad: 1080p
  • Audio: Español Latino AC3 5.1 iTUNES - Ingles AC3 5.1 BLURAY
  • Subtitulos: Español Latino SRT- FORZADOS SRT
  • Resolución: 1920x1036p
  • Formato: MKV
  • Codec: H.264
  • Encoder: Melkor
  • Mediainfo: Clic para Mostrar Datos Ver
  • Uuups 2 La Aventura Continua (2020) HD 1080p Latino.mkv
    Format                      : Matroska
    Format version              : Version 4
    File size                   : 2.61 GiB
    Duration                    : 1 h 26 min
    Overall bit rate            : 4 335 kb/s
    Movie name                  : Ooops! The Adventure Continues... (2020) CinemaniaHDD.Net
    Encoded date                : UTC 2021-06-16 18:23:56
    Writing application         : mkvmerge v56.1.0 ('My Friend') 64-bit
    Writing library             : libebml v1.4.2 + libmatroska v1.6.4
    Attachments                 : CINEMANIAHD.png

    Video
    ID                          : 1
    Format                      : AVC
    Format/Info                 : Advanced Video Codec
    Format profile              : High@L4.1
    Format settings             : CABAC / 4 Ref Frames
    Format settings, CABAC      : Yes
    Format settings, Reference  : 4 frames
    Codec ID                    : V_MPEG4/ISO/AVC
    Duration                    : 1 h 26 min
    Bit rate                    : 3 500 kb/s
    Width                       : 1 920 pixels
    Height                      : 1 036 pixels
    Display aspect ratio        : 1.85:1
    Frame rate mode             : Constant
    Frame rate                  : 24.000 FPS
    Color space                 : YUV
    Chroma subsampling          : 4:2:0
    Bit depth                   : 8 bits
    Scan type                   : Progressive
    Bits/(Pixel*Frame)          : 0.073
    Stream size                 : 2.11 GiB (81%)
    Title                       : HD1080p [CinemaniaHDD]
    Writing library             : x264 core 157 r2935 545de2f
    Encoding settings           : cabac=1 / ref=4 / deblock=1:1:1 / analyse=0x3:0x133 / me=umh / subme=9 / psy=1 / psy_rd=0.40:0.00 / mixed_ref=1 / me_range=16 / chroma_me=1 / trellis=2 / 8x8dct=1 / cqm=0 / deadzone=21,11 / fast_pskip=1 / chroma_qp_offset=-2 / threads=24 / lookahead_threads=2 / sliced_threads=0 / nr=0 / decimate=1 / interlaced=0 / bluray_compat=0 / constrained_intra=0 / bframes=5 / b_pyramid=2 / b_adapt=2 / b_bias=0 / direct=3 / weightb=1 / open_gop=0 / weightp=2 / keyint=240 / keyint_min=24 / scenecut=40 / intra_refresh=0 / rc_lookahead=60 / rc=2pass / mbtree=1 / bitrate=3500 / ratetol=1.0 / qcomp=0.60 / qpmin=0 / qpmax=69 / qpstep=4 / cplxblur=20.0 / qblur=0.5 / vbv_maxrate=62500 / vbv_bufsize=78125 / nal_hrd=none / filler=0 / ip_ratio=1.40 / aq=1:0.60
    Default                     : Yes
    Forced                      : No
    Color range                 : Limited
    Color primaries             : BT.709
    Transfer characteristics    : BT.709
    Matrix coefficients         : BT.709

    Audio #1
    ID                          : 2
    Format                      : AC-3
    Format/Info                 : Audio Coding 3
    Commercial name             : Dolby Digital
    Codec ID                    : A_AC3
    Duration                    : 1 h 26 min
    Bit rate mode               : Constant
    Bit rate                    : 384 kb/s
    Channel(s)                  : 6 channels
    Channel layout              : L R C LFE Ls Rs
    Sampling rate               : 48.0 kHz
    Frame rate                  : 31.250 FPS (1536 SPF)
    Compression mode            : Lossy
    Delay relative to video     : -5 ms
    Stream size                 : 237 MiB (9%)
    Title                       : Español Latino [CinemaniaHDD]
    Language                    : Spanish
    Service kind                : Complete Main
    Default                     : Yes
    Forced                      : No

    Audio #2
    ID                          : 3
    Format                      : AC-3
    Format/Info                 : Audio Coding 3
    Commercial name             : Dolby Digital
    Codec ID                    : A_AC3
    Duration                    : 1 h 26 min
    Bit rate mode               : Constant
    Bit rate                    : 448 kb/s
    Channel(s)                  : 6 channels
    Channel layout              : L R C LFE Ls Rs
    Sampling rate               : 48.0 kHz
    Frame rate                  : 31.250 FPS (1536 SPF)
    Compression mode            : Lossy
    Delay relative to video     : -5 ms
    Stream size                 : 276 MiB (10%)
    Title                       : Ingles [CinemaniaHDD]
    Language                    : English
    Service kind                : Complete Main
    Default                     : No
    Forced                      : No

    Text #1
    ID                          : 4
    Format                      : UTF-8
    Codec ID                    : S_TEXT/UTF8
    Codec ID/Info               : UTF-8 Plain Text
    Duration                    : 5 s 375 ms
    Bit rate                    : 19 b/s
    Count of elements           : 1
    Stream size                 : 13.0 Bytes (0%)
    Title                       : Forzados-SRT [CinemaniaHDD]
    Language                    : Spanish
    Default                     : Yes
    Forced                      : No

    Text #2
    ID                          : 5
    Format                      : UTF-8
    Codec ID                    : S_TEXT/UTF8
    Codec ID/Info               : UTF-8 Plain Text
    Duration                    : 1 h 20 min
    Bit rate                    : 67 b/s
    Count of elements           : 1113
    Stream size                 : 39.4 KiB (0%)
    Title                       : Español-SRT [CinemaniaHDD]
    Language                    : Spanish
    Default                     : No
    Forced                      : No

    Text #3
    ID                          : 6
    Format                      : UTF-8
    Codec ID                    : S_TEXT/UTF8
    Codec ID/Info               : UTF-8 Plain Text
    Duration                    : 1 h 25 min
    Bit rate                    : 54 b/s
    Count of elements           : 1219
    Stream size                 : 33.8 KiB (0%)
    Title                       : Ingles-SRT [CinemaniaHDD]
    Language                    : English
    Default                     : No
    Forced                      : No

    Menu
    00:00:00.000                : :Chapter 1
    00:05:54.583                : :Chapter 2
    00:14:29.958                : :Chapter 3
    00:21:10.958                : :Chapter 4
    00:24:30.542                : :Chapter 5
    00:35:11.750                : :Chapter 6
    00:46:02.375                : :Chapter 7
    00:54:38.375                : :Chapter 8
    01:03:17.667                : :Chapter 9
    01:10:53.500                : :Chapter 10
    01:17:36.000                : :Chapter 11
    01:20:53.417                : :Chapter 12

  • Peso: 2.61 GiB

Sinopsis

Descargar Uuups! 2 La aventura continúa (2020) HD 1080p Latino. La luna de miel ha terminado … ¡Cómo disfrutamos la fiesta cuando nuestros anfibios amigos Nestria descubrieron su increíble agilidad recién descubierta bajo el agua! Pero, cuando volvemos a visitar a nuestros curiosos y adorables amigos, la supervivencia de todo el reino animal vuelve a estar en juego. En medio de la perspectiva de una nueva tierra en la que vivir y prosperar, sin mencionar los recursos alimenticios en constante disminución, el estado de ánimo a bordo del Arca está cargado de tensiones crecientes, que regularmente se desbordan en la ira del Arca. La frágil paz se rompe con frecuencia con el consiguiente caos general. ¿Cómo pueden ayudar nuestros héroes inverosímiles? ¿Y qué hay debajo de Finny en un océano de posibilidades cuando literalmente cae en una nueva compañía bastante sorprendente?

Ficha técnica

Video trailer de la película

Enlaces de descarga

Rip de Bluray

Descargar Uuups! 2 La aventura continúa (2020) HD 1080p Latino




Aportes de DPeliculasHDmega la pass es:dpeliculashdmega.org Aportes de CinemaniaHD la pass es:cinemaniahdd.com
Guardado en : Animación , Aventura , Comedia , Familia , HD 1080p

Películas relacionadas

descargar Uuups! 2 La aventura continúa (2020) HD 1080p Latino 1080p 1080p gratis, Uuups! 2 La aventura continúa (2020) HD 1080p Latino 1080p mega 1 link, Uuups! 2 La aventura continúa (2020) HD 1080p Latino 1080p pelicula completa, descargar Uuups! 2 La aventura continúa (2020) HD 1080p Latino 1080p gratis en mega.

Uuups! 2 La aventura continúa (2020) HD 1080p Latino pelicula full hd, Uuups! 2 La aventura continúa (2020) HD 1080p Latino mega latino, Uuups! 2 La aventura continúa (2020) HD 1080p Latino 4k latino, Uuups! 2 La aventura continúa (2020) HD 1080p Latino pelicula completa, Uuups! 2 La aventura continúa (2020) HD 1080p Latino descargar gratis, descargar Uuups! 2 La aventura continúa (2020) HD 1080p Latino pelicula latino, Uuups! 2 La aventura continúa (2020) HD 1080p Latino 1 link mega, Uuups! 2 La aventura continúa (2020) HD 1080p Latino 1 link google drive, Uuups! 2 La aventura continúa (2020) HD 1080p Latino hd 1080p latino.