×

¿Problemas para descargar con Mozilla, EDGE? Deshabilita la opción "Abrir vinculos en una pestaña nueva" tal como lo muestra ésta imagen.

Upright (2022) Segunda Temporada WEB-DL 1080p Latino

300 vistas

Información de Upright (2022) Segunda Temporada WEB-DL 1080p Latino

Datos de la película

  • Calidad: 1080p
  • Audio: Español Latino AC3 2.0
  • Subtitulos: Español Latino SRT- FORZADOS SRT
  • Resolución: 1920x1080
  • Formato: MKV
  • Codec: H.264
  • Encoder: cinemaniahdd
  • Mediainfo: Clic para Mostrar Datos Ver
  • Upright T02E01 WEB-DL 1080p Latino [CNMNHDD].mkv
    Format                      : Matroska
    Format version              : Version 4
    File size                   : 1.25 GiB
    Duration                    : 27 min 36 s
    Overall bit rate            : 6 476 kb/s
    Movie name                  : Upright S02E01 - Reencuentro [1080p] - CinemaniaHDD.Net
    Encoded date                : UTC 2023-03-31 00:38:59
    Writing application         : mkvmerge v56.1.0 ('My Friend') 64-bit
    Writing library             : libebml v1.4.2 + libmatroska v1.6.4

    Video
    ID                          : 1
    Format                      : AVC
    Format/Info                 : Advanced Video Codec
    Format profile              : High@L4
    Format settings             : CABAC / 4 Ref Frames
    Format settings, CABAC      : Yes
    Format settings, Reference  : 4 frames
    Codec ID                    : V_MPEG4/ISO/AVC
    Duration                    : 27 min 36 s
    Bit rate mode               : Constant
    Bit rate                    : 5 800 kb/s
    Width                       : 1 920 pixels
    Height                      : 1 080 pixels
    Display aspect ratio        : 16:9
    Frame rate mode             : Constant
    Frame rate                  : 25.000 FPS
    Standard                    : Component
    Color space                 : YUV
    Chroma subsampling          : 4:2:0
    Bit depth                   : 8 bits
    Scan type                   : Progressive
    Bits/(Pixel*Frame)          : 0.112
    Stream size                 : 1.10 GiB (88%)
    Title                       : CinemaniaHDD
    Default                     : Yes
    Forced                      : No
    Color range                 : Limited
    Color primaries             : BT.709
    Transfer characteristics    : BT.709
    Matrix coefficients         : BT.709

    Audio #1
    ID                          : 2
    Format                      : AC-3
    Format/Info                 : Audio Coding 3
    Commercial name             : Dolby Digital
    Codec ID                    : A_AC3
    Duration                    : 27 min 36 s
    Bit rate mode               : Constant
    Bit rate                    : 384 kb/s
    Channel(s)                  : 2 channels
    Channel layout              : L R
    Sampling rate               : 48.0 kHz
    Frame rate                  : 31.250 FPS (1536 SPF)
    Compression mode            : Lossy
    Stream size                 : 75.8 MiB (6%)
    Title                       : Español Latino [CinemaniaHDD]
    Language                    : Spanish
    Service kind                : Complete Main
    Default                     : Yes
    Forced                      : No

    Audio #2
    ID                          : 3
    Format                      : AC-3
    Format/Info                 : Audio Coding 3
    Commercial name             : Dolby Digital
    Codec ID                    : A_AC3
    Duration                    : 27 min 36 s
    Bit rate mode               : Constant
    Bit rate                    : 384 kb/s
    Channel(s)                  : 6 channels
    Channel layout              : L R C LFE Ls Rs
    Sampling rate               : 48.0 kHz
    Frame rate                  : 31.250 FPS (1536 SPF)
    Bit depth                   : 32 bits
    Compression mode            : Lossy
    Stream size                 : 75.8 MiB (6%)
    Title                       : Inglés [CinemaniaHDD]
    Language                    : English
    Service kind                : Complete Main
    Default                     : No
    Forced                      : No

    Text #1
    ID                          : 4
    Format                      : UTF-8
    Codec ID                    : S_TEXT/UTF8
    Codec ID/Info               : UTF-8 Plain Text
    Duration                    : 21 min 53 s
    Bit rate                    : 1 b/s
    Count of elements           : 7
    Stream size                 : 171 Bytes (0%)
    Title                       : Forzados [CinemaniaHDD]
    Language                    : Spanish
    Default                     : Yes
    Forced                      : Yes

    Text #2
    ID                          : 5
    Format                      : UTF-8
    Codec ID                    : S_TEXT/UTF8
    Codec ID/Info               : UTF-8 Plain Text
    Duration                    : 25 min 21 s
    Bit rate                    : 77 b/s
    Count of elements           : 505
    Stream size                 : 14.4 KiB (0%)
    Title                       : Español Latino [CinemaniaHDD]
    Language                    : Spanish
    Default                     : No
    Forced                      : No

    Text #3
    ID                          : 6
    Format                      : UTF-8
    Codec ID                    : S_TEXT/UTF8
    Codec ID/Info               : UTF-8 Plain Text
    Duration                    : 27 min 8 s
    Bit rate                    : 134 b/s
    Count of elements           : 608
    Stream size                 : 26.7 KiB (0%)
    Title                       : Inglés [CinemaniaHDD]
    Language                    : English
    Default                     : No
    Forced                      : No

     

  • Peso: 1.25 GiB Aprox ---- 11 GiB in 8 Chapters.

Sinopsis

Cuando la familia marginada Lucky Flynn se entera de que su madre está muriendo, decide conducir al otro lado de Australia para verla, empacando nada más que un piano vertical para el viaje. Pero sus planes pronto se ponen patas arriba cuando conoce a la adolescente fugitiva Meg, que está lidiando con algunos demonios familiares.

Ficha técnica

Video trailer de la película

Enlaces de descarga

Rip de Bluray

Descargar Upright (2022) Segunda Temporada WEB-DL 1080p Latino




Aportes de DPeliculasHDmega la pass es:dpeliculashdmega.org Aportes de CinemaniaHD la pass es:cinemaniahdd.com Aportes recientes:cinemaniahdd.net
Guardado en : Comedia , Drama , Series

Películas relacionadas

descargar Upright (2022) Segunda Temporada WEB-DL 1080p Latino 1080p 1080p gratis, Upright (2022) Segunda Temporada WEB-DL 1080p Latino 1080p mega 1 link, Upright (2022) Segunda Temporada WEB-DL 1080p Latino 1080p serie completa, descargar Upright (2022) Segunda Temporada WEB-DL 1080p Latino 1080p gratis en mega.

Upright (2022) Segunda Temporada WEB-DL 1080p Latino pelicula full hd, Upright (2022) Segunda Temporada WEB-DL 1080p Latino mega latino, Upright (2022) Segunda Temporada WEB-DL 1080p Latino 4k latino, Upright (2022) Segunda Temporada WEB-DL 1080p Latino pelicula completa, Upright (2022) Segunda Temporada WEB-DL 1080p Latino descargar gratis, descargar Upright (2022) Segunda Temporada WEB-DL 1080p Latino pelicula latino, Upright (2022) Segunda Temporada WEB-DL 1080p Latino 1 link mega, Upright (2022) Segunda Temporada WEB-DL 1080p Latino 1 link google drive, Upright (2022) Segunda Temporada WEB-DL 1080p Latino hd 1080p latino.
Comentarios 0