×

¿Problemas para descargar con Mozilla, EDGE? Deshabilita la opción "Abrir vinculos en una pestaña nueva" tal como lo muestra ésta imagen.

Upright (2019) Primera Temporada AMZN WEB-DL 1080p Latino

228 vistas

Información de Upright (2019) Primera Temporada AMZN WEB-DL 1080p Latino

Datos de la película

  • Calidad: 1080p
  • Audio: Español Latino AC3 2.0
  • Subtitulos: Español Latino SRT- FORZADOS SRT
  • Resolución: 1920x1080
  • Formato: MKV
  • Codec: H.264
  • Encoder: cinemaniahdd
  • Mediainfo: Clic para Mostrar Datos Ver
  • Upright T01E01 AMZN WEB-DL 1080p Latino [CNMNHDD].mkv
    Format                      : Matroska
    Format version              : Version 4
    File size                   : 1.94 GiB
    Duration                    : 29 min 53 s
    Overall bit rate            : 9 294 kb/s
    Movie name                  : Upright S01E01 - Dia uno [1080p] - CinemaniaHDD.Net
    Encoded date                : UTC 2023-03-30 23:12:09
    Writing application         : mkvmerge v56.1.0 ('My Friend') 64-bit
    Writing library             : libebml v1.4.2 + libmatroska v1.6.4

    Video
    ID                          : 1
    Format                      : AVC
    Format/Info                 : Advanced Video Codec
    Format profile              : High@L4
    Format settings             : CABAC / 4 Ref Frames
    Format settings, CABAC      : Yes
    Format settings, Reference  : 4 frames
    Codec ID                    : V_MPEG4/ISO/AVC
    Duration                    : 29 min 53 s
    Bit rate mode               : Constant
    Bit rate                    : 8 684 kb/s
    Nominal bit rate            : 10 000 kb/s
    Width                       : 1 920 pixels
    Height                      : 1 080 pixels
    Display aspect ratio        : 16:9
    Frame rate mode             : Constant
    Frame rate                  : 23.976 (24000/1001) FPS
    Color space                 : YUV
    Chroma subsampling          : 4:2:0
    Bit depth                   : 8 bits
    Scan type                   : Progressive
    Bits/(Pixel*Frame)          : 0.175
    Stream size                 : 1.81 GiB (93%)
    Title                       : CinemaniaHDD
    Default                     : Yes
    Forced                      : No
    Color range                 : Limited
    Color primaries             : BT.709
    Transfer characteristics    : BT.709
    Matrix coefficients         : BT.709

    Audio #1
    ID                          : 2
    Format                      : AC-3
    Format/Info                 : Audio Coding 3
    Commercial name             : Dolby Digital
    Codec ID                    : A_AC3
    Duration                    : 29 min 53 s
    Bit rate mode               : Constant
    Bit rate                    : 384 kb/s
    Channel(s)                  : 2 channels
    Channel layout              : L R
    Sampling rate               : 48.0 kHz
    Frame rate                  : 31.250 FPS (1536 SPF)
    Compression mode            : Lossy
    Stream size                 : 82.1 MiB (4%)
    Title                       : Español Latino [CinemaniaHDD]
    Language                    : Spanish
    Service kind                : Complete Main
    Default                     : Yes
    Forced                      : No

    Audio #2
    ID                          : 3
    Format                      : E-AC-3
    Format/Info                 : Enhanced AC-3
    Commercial name             : Dolby Digital Plus
    Codec ID                    : A_EAC3
    Duration                    : 29 min 53 s
    Bit rate mode               : Constant
    Bit rate                    : 224 kb/s
    Channel(s)                  : 2 channels
    Channel layout              : L R
    Sampling rate               : 48.0 kHz
    Frame rate                  : 31.250 FPS (1536 SPF)
    Compression mode            : Lossy
    Stream size                 : 47.9 MiB (2%)
    Title                       : Inglés [CinemaniaHDD]
    Language                    : English
    Service kind                : Complete Main
    Default                     : No
    Forced                      : No

    Text #1
    ID                          : 4
    Format                      : UTF-8
    Codec ID                    : S_TEXT/UTF8
    Codec ID/Info               : UTF-8 Plain Text
    Duration                    : 13 min 45 s
    Bit rate                    : 1 b/s
    Count of elements           : 5
    Stream size                 : 122 Bytes (0%)
    Title                       : Forzados [CinemaniaHDD]
    Language                    : Spanish
    Default                     : Yes
    Forced                      : Yes

    Text #2
    ID                          : 5
    Format                      : UTF-8
    Codec ID                    : S_TEXT/UTF8
    Codec ID/Info               : UTF-8 Plain Text
    Duration                    : 27 min 31 s
    Bit rate                    : 51 b/s
    Count of elements           : 405
    Stream size                 : 10.3 KiB (0%)
    Title                       : Español Latino [CinemaniaHDD]
    Language                    : Spanish
    Default                     : No
    Forced                      : No

    Text #3
    ID                          : 6
    Format                      : UTF-8
    Codec ID                    : S_TEXT/UTF8
    Codec ID/Info               : UTF-8 Plain Text
    Duration                    : 27 min 35 s
    Bit rate                    : 54 b/s
    Count of elements           : 404
    Stream size                 : 11.0 KiB (0%)
    Title                       : Inglés [CinemaniaHDD]
    Language                    : English
    Default                     : No
    Forced                      : No

     

  • Peso: 1.94 GiB Aprox ---- 15 GiB in 8 Chapters.

Sinopsis

Cuando la familia marginada Lucky Flynn se entera de que su madre está muriendo, decide conducir al otro lado de Australia para verla, empacando nada más que un piano vertical para el viaje. Pero sus planes pronto se ponen patas arriba cuando conoce a la adolescente fugitiva Meg, que está lidiando con algunos demonios familiares.

Ficha técnica

Video trailer de la película

Enlaces de descarga

Rip de Bluray

Descargar Upright (2019) Primera Temporada AMZN WEB-DL 1080p Latino




Aportes de DPeliculasHDmega la pass es:dpeliculashdmega.org Aportes de CinemaniaHD la pass es:cinemaniahdd.com Aportes recientes:cinemaniahdd.net
Guardado en : Comedia , Drama , Series

Películas relacionadas

  • Quantum Leap (2023) Temporada 2 WEB-DL 1080p Latino

    Quantum Leap (2023) Temporada 2 WEB-DL 1080p Latino

    2022
    Quantum Leap (2023) Temporada 2 WEB-DL 1080p Latino

    0h 43m 2022

    Pasaron casi treinta años desde que el Dr. Sam Beckett entró al acelerador del proyecto Quantum Leap...

    Director: Donald P. Bellisario

    Género: Drama

    Actores: Raymond Lee

  • Naturaleza Humana (2022) REMUX 1080p Latino

    Naturaleza Humana (2022) REMUX 1080p Latino

    2022
    Naturaleza Humana (2022) REMUX 1080p Latino

    1h 31m 2022

    Descargar Naturaleza Humana (2022) REMUX 1080p Latino. Una historia sobre la mayoría de edad contada...

    Director: Louie Gibson

    Género: Drama

    Actores: Tim Heidecker

  • Pobres criaturas (2023) WEB-DL 4K UHD HDR Latino

    Pobres criaturas (2023) WEB-DL 4K UHD HDR Latino

    2023
    Pobres criaturas (2023) WEB-DL 4K UHD HDR Latino

    2h 21m 2023

    Descargar Pobres criaturas (2023) WEB-DL 4K UHD HDR Latino. Bella Baxter es una joven revivida por el...

    Director: Yorgos Lanthimos

    Género: 4K HDR

    Actores: Zen Joshua Poisson

  • Pobres criaturas (2023) WEB-DL 1080p Latino

    Pobres criaturas (2023) WEB-DL 1080p Latino

    2023
    Pobres criaturas (2023) WEB-DL 1080p Latino

    2h 21m 2023

    Descargar Pobres criaturas (2023) WEB-DL 1080p Latino. Bella Baxter es una joven revivida por el brillante...

    Director: Yorgos Lanthimos

    Género: Ciencia ficción

    Actores: Zen Joshua Poisson

descargar Upright (2019) Primera Temporada AMZN WEB-DL 1080p Latino 1080p 1080p gratis, Upright (2019) Primera Temporada AMZN WEB-DL 1080p Latino 1080p mega 1 link, Upright (2019) Primera Temporada AMZN WEB-DL 1080p Latino 1080p serie completa, descargar Upright (2019) Primera Temporada AMZN WEB-DL 1080p Latino 1080p gratis en mega.

Upright (2019) Primera Temporada AMZN WEB-DL 1080p Latino pelicula full hd, Upright (2019) Primera Temporada AMZN WEB-DL 1080p Latino mega latino, Upright (2019) Primera Temporada AMZN WEB-DL 1080p Latino 4k latino, Upright (2019) Primera Temporada AMZN WEB-DL 1080p Latino pelicula completa, Upright (2019) Primera Temporada AMZN WEB-DL 1080p Latino descargar gratis, descargar Upright (2019) Primera Temporada AMZN WEB-DL 1080p Latino pelicula latino, Upright (2019) Primera Temporada AMZN WEB-DL 1080p Latino 1 link mega, Upright (2019) Primera Temporada AMZN WEB-DL 1080p Latino 1 link google drive, Upright (2019) Primera Temporada AMZN WEB-DL 1080p Latino hd 1080p latino.
Comentarios 0