×

¿Problemas para descargar con Mozilla, EDGE? Deshabilita la opción "Abrir vinculos en una pestaña nueva" tal como lo muestra ésta imagen.

Upload (2022) Segunda Temporada AMZN WEB-DDL 1080p Latino

362 vistas

Información de Upload (2022) Segunda Temporada AMZN WEB-DDL 1080p Latino

Datos de la película

  • Calidad: 1080p
  • Audio: Español Latino AC3 5.1 WEB-DL - Ingles AC3 5.1 WEB-DL
  • Subtitulos: Español Latino SRT- FORZADOS SRT
  • Resolución: 1920x1080
  • Formato: MKV
  • Codec: H.264
  • Encoder: cinemaniahdd
  • Mediainfo: Clic para Mostrar Datos Ver
  • Upload T02E01 AMZN WEB-DL 1080p Latino [CNMNHDD].mkv
    Format                      : Matroska
    Format version              : Version 4
    File size                   : 2.30 GiB
    Duration                    : 31 min 38 s
    Overall bit rate            : 10.4 Mb/s
    Movie name                  : Upload S02E01 - Welcome Back Mr. Brown [1080p] [CNMNHDD]
    Encoded date                : UTC 2022-03-11 00:08:03
    Writing application         : mkvmerge v56.1.0 ('My Friend') 64-bit
    Writing library             : libebml v1.4.2 + libmatroska v1.6.4

    Video
    ID                          : 1
    Format                      : AVC
    Format/Info                 : Advanced Video Codec
    Format profile              : High@L4
    Format settings             : CABAC / 4 Ref Frames
    Format settings, CABAC      : Yes
    Format settings, Reference  : 4 frames
    Codec ID                    : V_MPEG4/ISO/AVC
    Duration                    : 31 min 38 s
    Bit rate mode               : Constant
    Bit rate                    : 8 493 kb/s
    Nominal bit rate            : 10 000 kb/s
    Width                       : 1 920 pixels
    Height                      : 1 080 pixels
    Display aspect ratio        : 16:9
    Frame rate mode             : Constant
    Frame rate                  : 23.976 (24000/1001) FPS
    Color space                 : YUV
    Chroma subsampling          : 4:2:0
    Bit depth                   : 8 bits
    Scan type                   : Progressive
    Bits/(Pixel*Frame)          : 0.171
    Stream size                 : 1.88 GiB (82%)
    Title                       : CinemaniaHDD
    Default                     : Yes
    Forced                      : No
    Color range                 : Limited
    Color primaries             : BT.709
    Transfer characteristics    : BT.709
    Matrix coefficients         : BT.709

    Audio #1
    ID                          : 2
    Format                      : AC-3
    Format/Info                 : Audio Coding 3
    Commercial name             : Dolby Digital
    Codec ID                    : A_AC3
    Duration                    : 31 min 38 s
    Bit rate mode               : Constant
    Bit rate                    : 640 kb/s
    Channel(s)                  : 6 channels
    Channel layout              : L R C LFE Ls Rs
    Sampling rate               : 48.0 kHz
    Frame rate                  : 31.250 FPS (1536 SPF)
    Compression mode            : Lossy
    Stream size                 : 145 MiB (6%)
    Title                       : Español latino [CinemaniaHDD]
    Language                    : Spanish
    Service kind                : Complete Main
    Default                     : Yes
    Forced                      : No

    Audio #2
    ID                          : 3
    Format                      : E-AC-3
    Format/Info                 : Enhanced AC-3
    Commercial name             : Dolby Digital Plus
    Codec ID                    : A_EAC3
    Duration                    : 31 min 38 s
    Bit rate mode               : Constant
    Bit rate                    : 640 kb/s
    Channel(s)                  : 6 channels
    Channel layout              : L R C LFE Ls Rs
    Sampling rate               : 48.0 kHz
    Frame rate                  : 31.250 FPS (1536 SPF)
    Compression mode            : Lossy
    Stream size                 : 145 MiB (6%)
    Title                       : Español latino / E-AC3 [CinemaniaHDD]
    Language                    : Spanish
    Service kind                : Complete Main
    Default                     : No
    Forced                      : No

    Audio #3
    ID                          : 4
    Format                      : E-AC-3
    Format/Info                 : Enhanced AC-3
    Commercial name             : Dolby Digital Plus
    Codec ID                    : A_EAC3
    Duration                    : 31 min 38 s
    Bit rate mode               : Constant
    Bit rate                    : 640 kb/s
    Channel(s)                  : 6 channels
    Channel layout              : L R C LFE Ls Rs
    Sampling rate               : 48.0 kHz
    Frame rate                  : 31.250 FPS (1536 SPF)
    Compression mode            : Lossy
    Stream size                 : 145 MiB (6%)
    Title                       : Inglés [CinemaniaHDD]
    Language                    : English
    Service kind                : Complete Main
    Default                     : No
    Forced                      : No

    Text #1
    ID                          : 5
    Format                      : UTF-8
    Codec ID                    : S_TEXT/UTF8
    Codec ID/Info               : UTF-8 Plain Text
    Duration                    : 21 min 12 s
    Bit rate                    : 1 b/s
    Count of elements           : 11
    Stream size                 : 194 Bytes (0%)
    Title                       : Forzados [CinemaniaHDD]
    Language                    : Spanish
    Default                     : Yes
    Forced                      : Yes

    Text #2
    ID                          : 6
    Format                      : UTF-8
    Codec ID                    : S_TEXT/UTF8
    Codec ID/Info               : UTF-8 Plain Text
    Duration                    : 30 min 18 s
    Bit rate                    : 58 b/s
    Count of elements           : 435
    Stream size                 : 12.9 KiB (0%)
    Title                       : Español latino [CinemaniaHDD]
    Language                    : Spanish
    Default                     : No
    Forced                      : No

    Menu
    00:00:00.000                : Amazon Original
    00:00:04.000                : Previously On
    00:01:34.000                : Scene 3
    00:02:56.000                : Scene 4
    00:03:24.000                : Title Sequence
    00:03:32.000                : Scene 6
    00:05:13.000                : Scene 7
    00:06:28.000                : Scene 8
    00:09:48.000                : Scene 9
    00:11:51.000                : Scene 10
    00:13:13.000                : Scene 11
    00:13:29.000                : Scene 12
    00:15:02.000                : Scene 13
    00:15:57.000                : Scene 14
    00:16:57.000                : Scene 15
    00:18:59.000                : Scene 16
    00:19:31.000                : Scene 17
    00:20:15.000                : Scene 18
    00:21:18.000                : Scene 19
    00:22:28.000                : Scene 20
    00:23:45.000                : Scene 21
    00:26:53.000                : Scene 22
    00:28:54.000                : End Credits

     

  • Peso: 2.30 GiB Aprox ---- 17 GiB in 7 Chapters.

Sinopsis

¡Regresa la exitosa comedia de Greg Daniels (The Office, Parks & Rec)! En esta sátira futurista, la gente puede subir su conciencia a un «más allá» digital de lujo. Esta temporada, Nora, el «ángel» de servicio al cliente, se ha mudado con un grupo que rechaza la tecnología y ha dejado a Nathan en Lakeview, donde él vive, incómodo, con su ex, Ingrid, que subió inesperadamente para estar con él.

Ficha técnica

Video trailer de la película

Enlaces de descarga

Rip de Bluray

Descargar Upload (2022) Segunda Temporada AMZN WEB-DDL 1080p Latino




Aportes de DPeliculasHDmega la pass es:dpeliculashdmega.org Aportes de CinemaniaHD la pass es:cinemaniahdd.com
Guardado en : Comedia , Sci-Fi & Fantasy , Series

Películas relacionadas

descargar Upload (2022) Segunda Temporada AMZN WEB-DDL 1080p Latino 1080p 1080p gratis, Upload (2022) Segunda Temporada AMZN WEB-DDL 1080p Latino 1080p mega 1 link, Upload (2022) Segunda Temporada AMZN WEB-DDL 1080p Latino 1080p serie completa, descargar Upload (2022) Segunda Temporada AMZN WEB-DDL 1080p Latino 1080p gratis en mega.

Upload (2022) Segunda Temporada AMZN WEB-DDL 1080p Latino pelicula full hd, Upload (2022) Segunda Temporada AMZN WEB-DDL 1080p Latino mega latino, Upload (2022) Segunda Temporada AMZN WEB-DDL 1080p Latino 4k latino, Upload (2022) Segunda Temporada AMZN WEB-DDL 1080p Latino pelicula completa, Upload (2022) Segunda Temporada AMZN WEB-DDL 1080p Latino descargar gratis, descargar Upload (2022) Segunda Temporada AMZN WEB-DDL 1080p Latino pelicula latino, Upload (2022) Segunda Temporada AMZN WEB-DDL 1080p Latino 1 link mega, Upload (2022) Segunda Temporada AMZN WEB-DDL 1080p Latino 1 link google drive, Upload (2022) Segunda Temporada AMZN WEB-DDL 1080p Latino hd 1080p latino.
Comentarios 0