Upgrade máquina asesina (2018) Full 1080p Latino

2.172 vistas
1 estrella2 estrellas3 estrellas4 estrellas5 estrellas (6 votos, promedio: 3,67 de 5)
Cargando…

Información de Upgrade máquina asesina (2018) Full 1080p Latino

Datos de la película

  • Calidad: Full 1080p
  • Audio: Español Latino DTS 5.1 BLURAY - Ingles DTS 5.1 BLURAY
  • Subtitulos: Español Latino PGS - Ingles PGS
  • Resolución: 1920x1080p
  • Formato: MKV
  • Codec: H.264
  • Encoder: Drcarys
  • Mediainfo: Clic para Mostrar Datos Ver
  • Format                                   : Matroska
    Format version                           : Version 4 / Version 2
    File size                                : 3.31 GiB
    Duration                                 : 1 h 39 min
    Overall bit rate                         : 4 742 kb/s
    Movie name                               : CinemaniaHDD.net
    Encoded date                             : UTC 2018-08-29 04:41:26 / UTC 2018-08-22T16:54:30Z
    Writing application                      : mkvmerge v15.0.0 ('Duel with the Devil') 64-bit
    Writing library                          : libebml v1.3.5 + libmatroska v1.4.5 / Lavf57.7.2

    Video
    ID                                       : 1
    Format                                   : AVC
    Format/Info                              : Advanced Video Codec
    Format profile                           : [email protected]
    Format settings                          : CABAC / 4 Ref Frames
    Format settings, CABAC                   : Yes
    Format settings, RefFrames               : 4 frames
    Codec ID                                 : V_MPEG4/ISO/AVC
    Duration                                 : 1 h 39 min
    Bit rate                                 : 2 371 kb/s
    Width                                    : 1 920 pixels
    Height                                   : 1 080 pixels
    Display aspect ratio                     : 16:9
    Frame rate mode                          : Constant
    Frame rate                               : 23.976 (24000/1001) FPS
    Color space                              : YUV
    Chroma subsampling                       : 4:2:0
    Bit depth                                : 8 bits
    Scan type                                : Progressive
    Bits/(Pixel*Frame)                       : 0.048
    Stream size                              : 1.65 GiB (50%)
    Title                                    : Upgrade máquina asesina (2018) Full 1080p Latino
    Writing library                          : x264 core 148 r2708 86b7198
    Encoding settings                        : cabac=1 / ref=4 / deblock=1:0:0 / analyse=0x3:0x133 / me=esa / subme=10 / psy=1 / psy_rd=1.00:0.00 / mixed_ref=1 / me_range=24 / chroma_me=1 / trellis=2 / 8x8dct=1 / cqm=0 / deadzone=21,11 / fast_pskip=1 / chroma_qp_offset=-2 / threads=34 / lookahead_threads=5 / sliced_threads=0 / nr=0 / decimate=1 / interlaced=0 / bluray_compat=0 / constrained_intra=0 / bframes=8 / b_pyramid=2 / b_adapt=2 / b_bias=0 / direct=3 / weightb=1 / open_gop=0 / weightp=2 / keyint=240 / keyint_min=24 / scenecut=40 / intra_refresh=0 / rc_lookahead=60 / rc=crf / mbtree=1 / crf=20.0 / qcomp=0.60 / qpmin=0 / qpmax=69 / qpstep=4 / vbv_maxrate=62500 / vbv_bufsize=78125 / crf_max=0.0 / nal_hrd=none / filler=0 / ip_ratio=1.40 / aq=1:1.00
    Language                                 : English
    Default                                  : Yes
    Forced                                   : No
    Color range                              : Limited
    Color primaries                          : BT.709
    Transfer characteristics                 : BT.709
    Matrix coefficients                      : BT.709
    Statistics Tags Issue                    : mkvmerge v15.0.0 ('Duel with the Devil') 64-bit 2018-08-29 04:41:26 / mkvmerge v15.0.0 ('Duel with the Devil') 64-bit 2018-08-29 04:41:26 / UTC 2018-08-22T16:54:30Z
    FromStats_BitRate                        : 2441301
    FromStats_Duration                       : 01:39:54.531000000
    FromStats_FrameCount                     : 143725
    FromStats_StreamSize                     : 1829307097

    Audio #1
    ID                                       : 2
    Format                                   : DTS
    Format/Info                              : Digital Theater Systems
    Mode                                     : 16
    Format settings, Endianness              : Big
    Codec ID                                 : A_DTS
    Duration                                 : 1 h 39 min
    Bit rate mode                            : Constant
    Bit rate                                 : 768 kb/s
    Channel(s)                               : 6 channels
    Channel positions                        : Front: L C R, Side: L R, LFE
    Sampling rate                            : 48.0 kHz
    Frame rate                               : 93.750 FPS (512 SPF)
    Bit depth                                : 24 bits
    Compression mode                         : Lossy
    Stream size                              : 549 MiB (16%)
    Language                                 : Spanish
    Default                                  : Yes
    Forced                                   : No
    Statistics Tags Issue                    : mkvmerge v15.0.0 ('Duel with the Devil') 64-bit 2018-08-29 04:41:26 / mkvmerge v15.0.0 ('Duel with the Devil') 64-bit 2018-08-29 04:41:26 / UTC 2018-08-22T16:54:30Z
    FromStats_BitRate                        : 768000
    FromStats_Duration                       : 01:39:54.528000000
    FromStats_FrameCount                     : 561987
    FromStats_StreamSize                     : 575474688

    Audio #2
    ID                                       : 3
    Format                                   : DTS
    Format/Info                              : Digital Theater Systems
    Mode                                     : 16
    Format settings, Endianness              : Big
    Codec ID                                 : A_DTS
    Duration                                 : 1 h 39 min
    Bit rate mode                            : Constant
    Bit rate                                 : 1 509 kb/s
    Channel(s)                               : 6 channels
    Channel positions                        : Front: L C R, Side: L R, LFE
    Sampling rate                            : 48.0 kHz
    Frame rate                               : 93.750 FPS (512 SPF)
    Bit depth                                : 24 bits
    Compression mode                         : Lossy
    Stream size                              : 1.05 GiB (32%)
    Language                                 : English
    Default                                  : No
    Forced                                   : No
    Statistics Tags Issue                    : mkvmerge v15.0.0 ('Duel with the Devil') 64-bit 2018-08-29 04:41:26 / mkvmerge v15.0.0 ('Duel with the Devil') 64-bit 2018-08-29 04:41:26 / UTC 2018-08-22T16:54:30Z
    FromStats_BitRate                        : 1509000
    FromStats_Duration                       : 01:39:54.528000000
    FromStats_FrameCount                     : 561987
    FromStats_StreamSize                     : 1130717844

    Text #1
    ID                                       : 4
    Format                                   : PGS
    Muxing mode                              : zlib
    Codec ID                                 : S_HDMV/PGS
    Codec ID/Info                            : Picture based subtitle format used on BDs/HD-DVDs
    Language                                 : English
    Default                                  : No
    Forced                                   : No
    Statistics Tags Issue                    : mkvmerge v15.0.0 ('Duel with the Devil') 64-bit 2018-08-29 04:41:26 / mkvmerge v15.0.0 ('Duel with the Devil') 64-bit 2018-08-29 04:41:26 / UTC 2018-08-22T16:54:30Z
    FromStats_BitRate                        : 39697
    FromStats_Duration                       : 01:33:10.752000000
    FromStats_FrameCount                     : 2647
    FromStats_StreamSize                     : 27742568

    Text #2
    ID                                       : 5
    Format                                   : PGS
    Muxing mode                              : zlib
    Codec ID                                 : S_HDMV/PGS
    Codec ID/Info                            : Picture based subtitle format used on BDs/HD-DVDs
    Language                                 : Spanish
    Default                                  : No
    Forced                                   : No
    Statistics Tags Issue                    : mkvmerge v15.0.0 ('Duel with the Devil') 64-bit 2018-08-29 04:41:26 / mkvmerge v15.0.0 ('Duel with the Devil') 64-bit 2018-08-29 04:41:26 / UTC 2018-08-22T16:54:30Z
    FromStats_BitRate                        : 28688
    FromStats_Duration                       : 01:39:11.529000000
    FromStats_FrameCount                     : 2107
    FromStats_StreamSize                     : 21342329

    Text #3
    ID                                       : 6
    Format                                   : PGS
    Muxing mode                              : zlib
    Codec ID                                 : S_HDMV/PGS
    Codec ID/Info                            : Picture based subtitle format used on BDs/HD-DVDs
    Title                                    : Forzados
    Language                                 : Spanish
    Default                                  : No
    Forced                                   : No
    Statistics Tags Issue                    : mkvmerge v15.0.0 ('Duel with the Devil') 64-bit 2018-08-29 04:41:26 / mkvmerge v15.0.0 ('Duel with the Devil') 64-bit 2018-08-29 04:41:26 / UTC 2018-08-22T16:54:30Z
    FromStats_BitRate                        : 670
    FromStats_Duration                       : 01:29:13.265000000
    FromStats_FrameCount                     : 34
    FromStats_StreamSize                     : 448466

    Menu
    00:00:00.000                             : :Chapter 1
    00:05:38.296                             : :Chapter 2
    00:09:04.919                             : :Chapter 3
    00:15:26.551                             : :Chapter 4
    00:18:42.705                             : :Chapter 5
    00:21:43.636                             : :Chapter 6
    00:28:36.465                             : :Chapter 7
    00:34:42.622                             : :Chapter 8
    00:41:17.058                             : :Chapter 9
    00:47:55.539                             : :Chapter 10
    00:51:13.988                             : :Chapter 11
    00:56:58.457                             : :Chapter 12
    01:01:34.566                             : :Chapter 13
    01:05:22.168                             : :Chapter 14
    01:09:10.938                             : :Chapter 15
    01:16:12.276                             : :Chapter 16
    01:20:17.104                             : :Chapter 17
    01:25:41.928                             : :Chapter 18
    01:31:45.250                             : :Chapter 19
    01:33:57.048                             : :Chapter 20

  • Peso: 3.31 GiB

Sinopsis

Tras ver cómo su mujer es asesinada, un hombre se somete a una operación que le permite volver a caminar para así poder vengar a su esposa.

Ficha técnica

Video trailer de la película

Enlaces de descarga

Rip de Bluray

Descargar Upgrade máquina asesina (2018) Full 1080p Latino




Aportes de DPeliculasHDmega la pass es:dpeliculashdmega.org Aportes de CinemaniaHD la pass es:cinemaniahdd.com

Películas relacionadas

  • Aquaman (2018) Full HD 1080p Latino

    2018
    Aquaman (2018) Full HD 1080p Latino

    5.0 2h 24m 2018

    Un icono durante más de 70 años, Aquaman (Jason Momoa) es el Rey de los Siete Mares. Este reacio gobernante...

    Director: James Wan

    Género: Acción

    Actores: Yahya Abdul-Mateen II

  • Bumblebee (2018) WEB-DL 1080p Castellano

    2018
    Bumblebee (2018) WEB-DL 1080p Castellano

    0.0 1h 54m 2018

    Sexta entrega de la saga 'Transformers', esta vez centrada en el "hermano pequeño" de los Autobots,...

    Director: Travis Knight

    Género: Acción

    Actores: Yianni Apostolopolous

  • Robin Hood (2018) 4K UHD HDR Latino

    2018
    Robin Hood (2018) 4K UHD HDR Latino

    0.0 1h 56m 2018

    Descargar Robin Hood (2018) 4K UHD HDR Latino, Mega, Google Drive. Cuando el joven Robin Hood (Taron...

    Director: Otto Bathurst

    Género: 4K HDR

    Actores: Yasen Atour

  • Operacion Overlord (2018) 4K UHD HDR Latino

    2018
    Operacion Overlord (2018) 4K UHD HDR Latino

    5.0 1h 50m 2018

    Descargar Operacion Overlord (2018) 4K UHD HDR Latino, Mega, Google Drive. La víspera del Día D, un...

    Director: Roxanne Cuenca

    Género: 4K HDR

    Actores: Wyatt Russell

Comentarios 0