Upgrade (2018) WEB-DL 1080p Latino

1.070 vistas
1 estrella2 estrellas3 estrellas4 estrellas5 estrellas (2 votos, promedio: 5,00 de 5)
Cargando…

Información de Upgrade (2018) WEB-DL 1080p Latino

Datos de la película

  • Calidad: WEBDL
  • Audio: Español Latino AC3 2.0 iTunes - Ingles AC3 5.1 iTunes
  • Subtitulos: Español Latino SRT- FORZADOS SRT
  • Resolución: 1916x798p
  • Formato: MKV
  • Codec: H.264
  • Encoder: FGT
  • Mediainfo: Clic para Mostrar Datos Ver
  • Format                                   : Matroska
    Format version                           : Version 4 / Version 2
    File size                                : 3.61 GiB
    Duration                                 : 1 h 39 min
    Overall bit rate                         : 5 170 kb/s
    Movie name                               : CinemnaiaHDD.net
    Encoded date                             : UTC 2018-08-14 19:12:32
    Writing application                      : mkvmerge v15.0.0 ('Duel with the Devil') 64-bit
    Writing library                          : libebml v1.3.5 + libmatroska v1.4.5

    Video
    ID                                       : 1
    Format                                   : AVC
    Format/Info                              : Advanced Video Codec
    Format profile                           : [email protected]
    Format settings                          : CABAC / 5 Ref Frames
    Format settings, CABAC                   : Yes
    Format settings, RefFrames               : 5 frames
    Codec ID                                 : V_MPEG4/ISO/AVC
    Duration                                 : 1 h 39 min
    Bit rate                                 : 4 528 kb/s
    Width                                    : 1 916 pixels
    Height                                   : 798 pixels
    Display aspect ratio                     : 2.40:1
    Frame rate mode                          : Constant
    Frame rate                               : 23.976 (23976/1000) FPS
    Color space                              : YUV
    Chroma subsampling                       : 4:2:0
    Bit depth                                : 8 bits
    Scan type                                : Progressive
    Bits/(Pixel*Frame)                       : 0.124
    Stream size                              : 3.16 GiB (88%)
    Title                                    : Upgrade (2018) WEB-DL 1080p Latino
    Language                                 : English
    Default                                  : Yes
    Forced                                   : No
    Color range                              : Limited
    Color primaries                          : BT.709
    Transfer characteristics                 : BT.709
    Matrix coefficients                      : BT.709

    Audio #1
    ID                                       : 2
    Format                                   : AC-3
    Format/Info                              : Audio Coding 3
    Format settings, Endianness              : Big
    Codec ID                                 : A_AC3
    Duration                                 : 1 h 39 min
    Bit rate mode                            : Constant
    Bit rate                                 : 256 kb/s
    Channel(s)                               : 2 channels
    Channel positions                        : Front: L R
    Sampling rate                            : 48.0 kHz
    Frame rate                               : 31.250 FPS (1536 SPF)
    Bit depth                                : 16 bits
    Compression mode                         : Lossy
    Delay relative to video                  : -42 ms
    Stream size                              : 183 MiB (5%)
    Language                                 : Spanish
    Service kind                             : Complete Main
    Default                                  : Yes
    Forced                                   : No

    Audio #2
    ID                                       : 3
    Format                                   : AC-3
    Format/Info                              : Audio Coding 3
    Format settings, Endianness              : Big
    Codec ID                                 : A_AC3
    Duration                                 : 1 h 39 min
    Bit rate mode                            : Constant
    Bit rate                                 : 384 kb/s
    Channel(s)                               : 6 channels
    Channel positions                        : Front: L C R, Side: L R, LFE
    Sampling rate                            : 48.0 kHz
    Frame rate                               : 31.250 FPS (1536 SPF)
    Bit depth                                : 16 bits
    Compression mode                         : Lossy
    Delay relative to video                  : -42 ms
    Stream size                              : 274 MiB (7%)
    Language                                 : English
    Service kind                             : Complete Main
    Default                                  : No
    Forced                                   : No

    Text #1
    ID                                       : 4
    Format                                   : UTF-8
    Codec ID                                 : S_TEXT/UTF8
    Codec ID/Info                            : UTF-8 Plain Text
    Duration                                 : 1 h 18 min
    Bit rate                                 : 1 b/s
    Count of elements                        : 23
    Stream size                              : 706 Bytes (0%)
    Title                                    : Forzados
    Language                                 : Spanish
    Default                                  : Yes
    Forced                                   : Yes

    Text #2
    ID                                       : 5
    Format                                   : UTF-8
    Codec ID                                 : S_TEXT/UTF8
    Codec ID/Info                            : UTF-8 Plain Text
    Duration                                 : 1 h 32 min
    Bit rate                                 : 50 b/s
    Count of elements                        : 1053
    Stream size                              : 34.0 KiB (0%)
    Language                                 : Spanish
    Default                                  : No
    Forced                                   : No

    Menu
    00:00:00.000                             : en:1
    00:05:39.297                             : en:2
    00:09:05.920                             : en:3
    00:15:27.760                             : en:4
    00:18:43.705                             : en:5
    00:21:44.635                             : en:6
    00:28:38.382                             : en:7
    00:34:43.622                             : en:8
    00:41:18.058                             : en:9
    00:47:56.623                             : en:10
    00:51:15.530                             : en:11
    00:56:59.457                             : en:12
    01:01:35.566                             : en:13
    01:05:23.168                             : en:14
    01:09:11.938                             : en:15
    01:16:14.193                             : en:16
    01:20:18.103                             : en:17
    01:25:42.927                             : en:18
    01:31:46.248                             : en:19
    01:33:58.630                             : en:20

  • Peso: 3.61 GiB

Sinopsis

Tras ver cómo su mujer es asesinada, un hombre se somete a una operación que le permite volver a caminar para así poder vengar a su esposa.

Ficha técnica

Video trailer de la película

Enlaces de descarga

Rip de Bluray

Descargar Upgrade (2018) WEB-DL 1080p Latino




Aportes de DPeliculasHDmega la pass es:dpeliculashdmega.org Aportes de CinemaniaHD la pass es:cinemaniahdd.com

Películas relacionadas

Comentarios 0