×

¿Problemas para descargar con Mozilla, EDGE? Deshabilita la opción "Abrir vinculos en una pestaña nueva" tal como lo muestra ésta imagen.

Up – una aventura de altura (2009) REMUX 1080p Latino – CMHDD

1.299 vistas

Información de Up – una aventura de altura (2009) REMUX 1080p Latino – CMHDD

Datos de la película

  • Calidad: Full 1080p
  • Audio: Español Latino AC3 5.1 BLURAY - Ingles DTS 5.1 BLURAY
  • Subtitulos: Español Latino SRT- FORZADOS SRT
  • Resolución: 1920x1080p
  • Formato: MKV
  • Codec: H.264
  • Encoder: Dracarys
  • Mediainfo: Clic para Mostrar Datos Ver
  • Format                      : Matroska
    Format version              : Version 4
    File size                   : 19.2 GiB
    Duration                    : 1 h 36 min
    Overall bit rate mode       : Variable
    Overall bit rate            : 28.5 Mb/s
    Movie name                  : Up : una aventura de altura (2009) REMUX 1080p Latino - CMHDD
    Encoded date                : UTC 2020-08-03 22:20:48
    Writing application         : mkvmerge v46.0.0 ('No Deeper Escape') 64-bit
    Writing library             : libebml v1.3.10 + libmatroska v1.5.2

    Video
    ID                          : 1
    Format                      : AVC
    Format/Info                 : Advanced Video Codec
    Format profile              : High@L4.1
    Format settings             : CABAC / 4 Ref Frames
    Format settings, CABAC      : Yes
    Format settings, Reference  : 4 frames
    Format settings, GOP        : M=3, N=12
    Codec ID                    : V_MPEG4/ISO/AVC
    Duration                    : 1 h 36 min
    Bit rate mode               : Constant
    Bit rate                    : 23.8 Mb/s
    Nominal bit rate            : 34.0 Mb/s
    Width                       : 1 920 pixels
    Height                      : 1 080 pixels
    Display aspect ratio        : 16:9
    Frame rate mode             : Constant
    Frame rate                  : 23.976 (24000/1001) FPS
    Color space                 : YUV
    Chroma subsampling          : 4:2:0
    Bit depth                   : 8 bits
    Scan type                   : Progressive
    Bits/(Pixel*Frame)          : 0.479
    Stream size                 : 16.1 GiB (84%)
    Default                     : Yes
    Forced                      : No
    Color range                 : Limited
    Color primaries             : BT.709
    Transfer characteristics    : BT.709
    Matrix coefficients         : BT.709

    Audio #1
    ID                          : 2
    Format                      : AC-3
    Format/Info                 : Audio Coding 3
    Commercial name             : Dolby Digital
    Codec ID                    : A_AC3
    Duration                    : 1 h 36 min
    Bit rate mode               : Constant
    Bit rate                    : 640 kb/s
    Channel(s)                  : 6 channels
    Channel layout              : L R C LFE Ls Rs
    Sampling rate               : 48.0 kHz
    Frame rate                  : 31.250 FPS (1536 SPF)
    Compression mode            : Lossy
    Stream size                 : 442 MiB (2%)
    Language                    : Spanish
    Service kind                : Complete Main
    Default                     : Yes
    Forced                      : No

    Audio #2
    ID                          : 3
    Format                      : DTS ES XLL
    Format/Info                 : Digital Theater Systems
    Commercial name             : DTS-HD Master Audio
    Codec ID                    : A_DTS
    Duration                    : 1 h 36 min
    Bit rate mode               : Variable
    Bit rate                    : 4 035 kb/s
    Channel(s)                  : 6 channels
    Channel(s)_Original         : 7 channels
    ChannelLayout_Original      : C L R Ls Rs LFE Cs
    Sampling rate               : 48.0 kHz
    Frame rate                  : 93.750 FPS (512 SPF)
    Bit depth                   : 24 bits
    Compression mode            : Lossless
    Stream size                 : 2.72 GiB (14%)
    Language                    : English
    Default                     : No
    Forced                      : No

    Text #1
    ID                          : 4
    Format                      : PGS
    Muxing mode                 : zlib
    Codec ID                    : S_HDMV/PGS
    Codec ID/Info               : Picture based subtitle format used on BDs/HD-DVDs
    Duration                    : 1 h 36 min
    Bit rate                    : 25.5 kb/s
    Count of elements           : 1720
    Stream size                 : 17.6 MiB (0%)
    Language                    : Spanish
    Default                     : No
    Forced                      : No

    Text #2
    ID                          : 5
    Format                      : UTF-8
    Codec ID                    : S_TEXT/UTF8
    Codec ID/Info               : UTF-8 Plain Text
    Duration                    : 1 h 27 min
    Bit rate                    : 44 b/s
    Count of elements           : 848
    Stream size                 : 28.9 KiB (0%)
    Language                    : Spanish
    Default                     : No
    Forced                      : No

  • Peso: 19.2 GiB

Sinopsis

Descargar Up – Una Aventura de Altura (2009) REMUX 1080p Latino. Cuenta la historia de un vendedor de globos de 78 años, Carl Fredricksen, quien finamente consigue llevar a cabo el sueño de su vida al enganchar miles de globos a su casa y salir volando rumbo a América del Sur. Pero descubre demasiado tarde que la mayor de sus pesadillas se ha embarcado también en el viaje: un explorador de la jungla llamado Russell, que tiene 8 años y un optimismo a prueba de bombas.

 

Ficha técnica

Video trailer de la película

Enlaces de descarga

Rip de Bluray

Descargar Up – una aventura de altura (2009) REMUX 1080p Latino – CMHDD


Aportes de DPeliculasHDmega la pass es:dpeliculashdmega.org Aportes de CinemaniaHD la pass es:cinemaniahdd.com
Guardado en : Animación , Aventura , Comedia , Familia , Remux

Películas relacionadas

descargar Up – una aventura de altura (2009) REMUX 1080p Latino – CMHDD Full 1080p 1080p gratis, Up – una aventura de altura (2009) REMUX 1080p Latino – CMHDD Full 1080p mega 1 link, Up – una aventura de altura (2009) REMUX 1080p Latino – CMHDD Full 1080p pelicula completa, descargar Up – una aventura de altura (2009) REMUX 1080p Latino – CMHDD Full 1080p gratis en mega.

Up – una aventura de altura (2009) REMUX 1080p Latino – CMHDD pelicula full hd, Up – una aventura de altura (2009) REMUX 1080p Latino – CMHDD mega latino, Up – una aventura de altura (2009) REMUX 1080p Latino – CMHDD 4k latino, Up – una aventura de altura (2009) REMUX 1080p Latino – CMHDD pelicula completa, Up – una aventura de altura (2009) REMUX 1080p Latino – CMHDD descargar gratis, descargar Up – una aventura de altura (2009) REMUX 1080p Latino – CMHDD pelicula latino, Up – una aventura de altura (2009) REMUX 1080p Latino – CMHDD 1 link mega, Up – una aventura de altura (2009) REMUX 1080p Latino – CMHDD 1 link google drive, Up – una aventura de altura (2009) REMUX 1080p Latino – CMHDD hd 1080p latino.
Comentarios 2
  • shodry - 17 septiembre, 2019

    Tengo una duda que me ha perseguido por mucho tiempo, ¿Cual la mejor resolución que tiene la pagina y con que caratula lo representa?, me hago esta pregunta porque he visto diversas caratulas de blu ray en cinamiahdd por ejemplo: blu ray con caratula verde, plateada, gris, morada y no se cual tiene la mejor resolución.

    • CinemaniaHDD - 10 febrero, 2022

      Hola, te lo explico de menor a mayor. la caratula VERDE es un release inicial sacado de streaming o ondemand WEB-DL. hasta que salgan los discos bluray que comienza con la de color NEGRO que es una version ligera, luego esta la PLATEADA que es un ripeo llamado Placebo que su calidad se asemeja a la original del bluray en este caso la MORADA que se llama REMUX.