×

¿Problemas para descargar con Mozilla, EDGE? Deshabilita la opción "Abrir vinculos en una pestaña nueva" tal como lo muestra ésta imagen.

Up (2009) REMUX 4K HDR Latino – CMHDD

231 vistas

Información de Up (2009) REMUX 4K HDR Latino – CMHDD

Datos de la película

  • Calidad: 4K HDR
  • Audio: Español Latino AC3 5.1 BLURAY - Ingles DTS-HD Master 7.1 BLURAY
  • Subtitulos: Español Latino PGS
  • Resolución: 3840x2160p
  • Formato: MKV
  • Codec: H.264
  • Encoder: Dracarys
  • Mediainfo: Clic para Mostrar Datos Ver
  • Format                      : Matroska
    Format version              : Version 4
    File size                   : 41.1 GiB
    Duration                    : 1 h 36 min
    Overall bit rate mode       : Variable
    Overall bit rate            : 60.9 Mb/s
    Movie name                  : Up (2009) REMUX 4K HDR Latino - CMHDD
    Encoded date                : UTC 2021-05-16 06:59:34
    Writing application         : mkvmerge v56.1.0 ('My Friend') 64-bit
    Writing library             : libebml v1.4.2 + libmatroska v1.6.4
    Cover                       : Yes
    Attachments                 : cover.jpg

    Video
    ID                          : 1
    Format                      : HEVC
    Format/Info                 : High Efficiency Video Coding
    Format profile              : Main 10@L5.1@High
    HDR format                  : SMPTE ST 2086, HDR10 compatible
    Codec ID                    : V_MPEGH/ISO/HEVC
    Duration                    : 1 h 36 min
    Bit rate                    : 48.6 Mb/s
    Width                       : 3 840 pixels
    Height                      : 2 160 pixels
    Display aspect ratio        : 16:9
    Frame rate mode             : Constant
    Frame rate                  : 23.976 (23976/1000) FPS
    Original frame rate         : 23.976 (24000/1001) FPS
    Color space                 : YUV
    Chroma subsampling          : 4:2:0 (Type 2)
    Bit depth                   : 10 bits
    Bits/(Pixel*Frame)          : 0.245
    Stream size                 : 32.8 GiB (80%)
    Writing library             : ATEME Titan File 3.9.0 (4.9.0.0)        
    Default                     : Yes
    Forced                      : No
    Color range                 : Limited
    Color primaries             : BT.2020
    Transfer characteristics    : PQ
    Matrix coefficients         : BT.2020 non-constant
    Mastering display color pri : Display P3
    Mastering display luminance : min: 0.0000 cd/m2, max: 1000 cd/m2

    Audio #1
    ID                          : 2
    Format                      : MLP FBA 16-ch
    Format/Info                 : Meridian Lossless Packing FBA with 16-channel presentation
    Commercial name             : Dolby TrueHD with Dolby Atmos
    Codec ID                    : A_TRUEHD
    Duration                    : 1 h 36 min
    Bit rate mode               : Variable
    Bit rate                    : 6 830 kb/s
    Maximum bit rate            : 8 307 kb/s
    Channel(s)                  : 8 channels
    Channel layout              : L R C LFE Ls Rs Lb Rb
    Sampling rate               : 48.0 kHz
    Frame rate                  : 1 200.000 FPS (40 SPF)
    Compression mode            : Lossless
    Stream size                 : 4.61 GiB (11%)
    Language                    : English
    Default                     : No
    Forced                      : No
    Number of dynamic objects   : 13
    Bed channel count           : 1 channel
    Bed channel configuration   : LFE

    Audio #2
    ID                          : 3
    Format                      : AC-3
    Format/Info                 : Audio Coding 3
    Commercial name             : Dolby Digital
    Codec ID                    : A_AC3
    Duration                    : 1 h 36 min
    Bit rate mode               : Constant
    Bit rate                    : 640 kb/s
    Channel(s)                  : 6 channels
    Channel layout              : L R C LFE Ls Rs
    Sampling rate               : 48.0 kHz
    Frame rate                  : 31.250 FPS (1536 SPF)
    Compression mode            : Lossy
    Stream size                 : 442 MiB (1%)
    Language                    : English
    Service kind                : Complete Main
    Default                     : No
    Forced                      : No

    Audio #3
    ID                          : 4
    Format                      : DTS ES XLL
    Format/Info                 : Digital Theater Systems
    Commercial name             : DTS-HD Master Audio
    Codec ID                    : A_DTS
    Duration                    : 1 h 36 min
    Bit rate mode               : Variable
    Bit rate                    : 4 029 kb/s
    Channel(s)                  : 6 channels
    Channel(s)_Original         : 7 channels
    ChannelLayout_Original      : C L R Ls Rs LFE Cs
    Sampling rate               : 48.0 kHz
    Frame rate                  : 93.750 FPS (512 SPF)
    Bit depth                   : 24 bits
    Compression mode            : Lossless
    Delay relative to video     : 667 ms
    Stream size                 : 2.72 GiB (7%)
    Language                    : English
    Default                     : No
    Forced                      : No

    Audio #4
    ID                          : 5
    Format                      : AC-3
    Format/Info                 : Audio Coding 3
    Commercial name             : Dolby Digital
    Codec ID                    : A_AC3
    Duration                    : 1 h 36 min
    Bit rate mode               : Constant
    Bit rate                    : 640 kb/s
    Channel(s)                  : 6 channels
    Channel layout              : L R C LFE Ls Rs
    Sampling rate               : 48.0 kHz
    Frame rate                  : 31.250 FPS (1536 SPF)
    Compression mode            : Lossy
    Delay relative to video     : 667 ms
    Stream size                 : 442 MiB (1%)
    Language                    : Spanish
    Service kind                : Complete Main
    Default                     : Yes
    Forced                      : No

    Text
    ID                          : 6
    Format                      : PGS
    Muxing mode                 : zlib
    Codec ID                    : S_HDMV/PGS
    Codec ID/Info               : Picture based subtitle format used on BDs/HD-DVDs
    Duration                    : 1 h 36 min
    Bit rate                    : 25.4 kb/s
    Count of elements           : 1718
    Stream size                 : 17.5 MiB (0%)
    Language                    : Spanish
    Default                     : No
    Forced                      : No

    Menu
    00:00:00.000                : Chapter 01
    00:02:40.076                : Chapter 02
    00:07:14.851                : Chapter 03
    00:11:38.155                : Chapter 04
    00:13:34.146                : Chapter 05
    00:15:22.755                : Chapter 06
    00:17:36.555                : Chapter 07
    00:20:25.807                : Chapter 08
    00:24:31.970                : Chapter 09
    00:26:24.457                : Chapter 10
    00:28:03.223                : Chapter 11
    00:29:40.903                : Chapter 12
    00:33:20.832                : Chapter 13
    00:34:21.058                : Chapter 14
    00:35:15.154                : Chapter 15
    00:39:50.179                : Chapter 16
    00:42:35.511                : Chapter 17
    00:44:41.845                : Chapter 18
    00:46:17.899                : Chapter 19
    00:49:19.790                : Chapter 20
    00:52:21.596                : Chapter 21
    00:55:24.654                : Chapter 22
    01:00:34.213                : Chapter 23
    01:04:19.855                : Chapter 24
    01:06:14.970                : Chapter 25
    01:08:58.676                : Chapter 26
    01:10:21.383                : Chapter 27
    01:13:35.994                : Chapter 28
    01:15:25.020                : Chapter 29
    01:17:53.418                : Chapter 30
    01:19:46.531                : Chapter 31
    01:21:54.534                : Chapter 32
    01:23:23.957                : Chapter 33
    01:26:03.324                : Chapter 34
    01:29:03.087                : Chapter 35

  • Peso: 41.1 GiB

Sinopsis

Tras atar miles de globos a su casa, Carl Fredricksen, un vendedor de globos jubilado, se embarca en el mundo de los sueños de la infancia. Pero sin que Carl lo sepa, Russell, un explorador de 8 años, se encuentra en el lugar equivocado en el momento equivocado: el porche delantero de la casa. El dúo más improbable conoce a fantásticos amigos como Dug, un perro con un collar especial que le permite hablar, y Kevin, un pájaro de cuatro metros de altura que no vuela. Atrapados en la selva, Carl se da cuenta de que a veces las mayores aventuras de la vida son las que menos esperabas.

Ficha técnica

Video trailer de la película

Enlaces de descarga

Rip de Bluray

Descargar Up (2009) REMUX 4K HDR Latino – CMHDD


Aportes de DPeliculasHDmega la pass es:dpeliculashdmega.org Aportes de CinemaniaHD la pass es:cinemaniahdd.com
Guardado en : Animación , Aventura , Comedia , Familia

Películas relacionadas

descargar Up (2009) REMUX 4K HDR Latino – CMHDD 4K HDR 1080p gratis, Up (2009) REMUX 4K HDR Latino – CMHDD 4K HDR mega 1 link, Up (2009) REMUX 4K HDR Latino – CMHDD 4K HDR pelicula completa, descargar Up (2009) REMUX 4K HDR Latino – CMHDD 4K HDR gratis en mega.

Up (2009) REMUX 4K HDR Latino – CMHDD pelicula full hd, Up (2009) REMUX 4K HDR Latino – CMHDD mega latino, Up (2009) REMUX 4K HDR Latino – CMHDD 4k latino, Up (2009) REMUX 4K HDR Latino – CMHDD pelicula completa, Up (2009) REMUX 4K HDR Latino – CMHDD descargar gratis, descargar Up (2009) REMUX 4K HDR Latino – CMHDD pelicula latino, Up (2009) REMUX 4K HDR Latino – CMHDD 1 link mega, Up (2009) REMUX 4K HDR Latino – CMHDD 1 link google drive, Up (2009) REMUX 4K HDR Latino – CMHDD hd 1080p latino.
Comentarios 0