×

¿Problemas para descargar con Mozilla, EDGE? Deshabilita la opción "Abrir vinculos en una pestaña nueva" tal como lo muestra ésta imagen.

Up: Una aventura de altura (2009) 4K UHD HDR Latino

1.199 vistas

Información de Up: Una aventura de altura (2009) 4K UHD HDR Latino

Datos de la película

  • Calidad: Full 1080p
  • Audio: Español Latino AC3 5.1 BLURAY - Ingles AC3 5.1 BLURAY
  • Subtitulos: Español Latino PGS - Ingles PGS
  • Resolución: 3840x2160p
  • Formato: MKV
  • Codec: HEVC
  • Encoder: CinefiloCool
  • Mediainfo: Clic para Mostrar Datos Ver
  • Up (2009) UHD HD Latino-CMHDD.mkv
    Format                      : Matroska
    Format version              : Version 4
    File size                   : 7.06 GiB
    Duration                    : 1 h 36 min
    Overall bit rate            : 10.5 Mb/s
    Movie name                  : Up (2009) CinemaniaHDD.Net
    Encoded date                : UTC 2020-03-01 19:39:21
    Writing application         : mkvmerge v42.0.0 ('Overtime') 64-bit
    Writing library             : libebml v1.3.10 + libmatroska v1.5.2
    Attachments                 : CINEMANIAHD.png

    Video
    ID                          : 1
    Format                      : HEVC
    Format/Info                 : High Efficiency Video Coding
    Commercial name             : HDR10
    Format profile              : Main 10@L5.1@High
    Codec ID                    : V_MPEGH/ISO/HEVC
    Duration                    : 1 h 36 min
    Bit rate                    : 9 213 kb/s
    Width                       : 3 840 pixels
    Height                      : 2 160 pixels
    Display aspect ratio        : 16:9
    Frame rate mode             : Constant
    Frame rate                  : 23.976 (24000/1001) FPS
    Color space                 : YUV
    Chroma subsampling          : 4:2:0 (Type 2)
    Bit depth                   : 10 bits
    Bits/(Pixel*Frame)          : 0.046
    Stream size                 : 6.19 GiB (88%)
    Title                       : 2160p HDR [Bluray]
    Writing library             : x265 3.2+23-52135ffd9bcd:[Windows][GCC 9.2.1][64 bit] 10bit
    Encoding settings           : cpuid=1176575 / frame-threads=6 / numa-pools=36 / wpp / no-pmode / no-pme / no-psnr / no-ssim / log-level=2 / input-csp=1 / input-res=3840x2160 / interlace=0 / total-frames=138291 / level-idc=51 / high-tier=1 / uhd-bd=1 / ref=4 / no-allow-non-conformance / repeat-headers / annexb / aud / hrd / info / hash=0 / no-temporal-layers / no-open-gop / min-keyint=1 / keyint=24 / gop-lookahead=0 / bframes=4 / b-adapt=2 / b-pyramid / bframe-bias=0 / rc-lookahead=25 / lookahead-slices=4 / scenecut=40 / hist-scenecut=0 / radl=0 / no-splice / no-intra-refresh / ctu=64 / min-cu-size=8 / rect / no-amp / max-tu-size=32 / tu-inter-depth=1 / tu-intra-depth=1 / limit-tu=0 / rdoq-level=2 / dynamic-rd=0.00 / no-ssim-rd / signhide / no-tskip / nr-intra=0 / nr-inter=0 / no-constrained-intra / no-strong-intra-smoothing / max-merge=3 / limit-refs=3 / limit-modes / me=3 / subme=3 / merange=57 / temporal-mvp / no-frame-dup / no-hme / weightp / no-weightb / no-analyze-src-pics / deblock=-3:-3 / no-sao / no-sao-non-deblock / rd=4 / selective-sao=0 / no-early-skip / rskip / no-fast-intra / no-tskip-fast / no-cu-lossless / no-b-intra / no-splitrd-skip / rdpenalty=0 / psy-rd=2.00 / psy-rdoq=1.00 / no-rd-refine / no-lossless / cbqpoffs=0 / crqpoffs=0 / rc=crf / crf=17.0 / qcomp=0.60 / qpstep=4 / stats-write=0 / stats-read=0 / vbv-maxrate=160000 / vbv-bufsize=160000 / vbv-init=0.9 / crf-max=0.0 / crf-min=0.0 / ipratio=1.40 / pbratio=1.30 / aq-mode=1 / aq-strength=1.00 / cutree / zone-count=0 / no-strict-cbr / qg-size=32 / no-rc-grain / qpmax=69 / qpmin=0 / no-const-vbv / sar=1 / overscan=0 / videoformat=5 / range=0 / colorprim=9 / transfer=16 / colormatrix=9 / chromaloc=1 / chromaloc-top=2 / chromaloc-bottom=2 / display-window=0 / master-display=G(13250,34500)B(7500,3000)R(34000,16000)WP(15635,16450)L(10000000,0) / cll=0,0 / min-luma=0 / max-luma=1023 / log2-max-poc-lsb=8 / vui-timing-info / vui-hrd-info / slices=1 / no-opt-qp-pps / no-opt-ref-list-length-pps / no-multi-pass-opt-rps / scenecut-bias=0.05 / hist-threshold=0.01 / no-opt-cu-delta-qp / no-aq-motion / hdr / hdr-opt / no-dhdr10-opt / no-idr-recovery-sei / analysis-reuse-level=5 / scale-factor=0 / refine-intra=0 / refine-inter=0 / refine-mv=1 / refine-ctu-distortion=0 / no-limit-sao / ctu-info=0 / no-lowpass-dct / refine-analysis-type=0 / copy-pic=1 / max-ausize-factor=1.0 / no-dynamic-refine / no-single-sei / no-hevc-aq / no-svt / no-field / qp-adaptation-range=1.00 / no-scenecut-aware-qp
    Default                     : Yes
    Forced                      : Yes
    Color range                 : Limited
    Color primaries             : BT.2020
    Transfer characteristics    : PQ
    Matrix coefficients         : BT.2020 non-constant
    Mastering display color pri : Display P3
    Mastering display luminance : min: 0.0000 cd/m2, max: 1000 cd/m2

    Audio #1
    ID                          : 2
    Format                      : AC-3
    Format/Info                 : Audio Coding 3
    Commercial name             : Dolby Digital
    Codec ID                    : A_AC3
    Duration                    : 1 h 36 min
    Bit rate mode               : Constant
    Bit rate                    : 640 kb/s
    Channel(s)                  : 6 channels
    Channel layout              : L R C LFE Ls Rs
    Sampling rate               : 48.0 kHz
    Frame rate                  : 31.250 FPS (1536 SPF)
    Bit depth                   : 16 bits
    Compression mode            : Lossy
    Stream size                 : 442 MiB (6%)
    Title                       : AC3_5.1_Bluray_Esp
    Language                    : Spanish
    Service kind                : Complete Main
    Default                     : Yes
    Forced                      : Yes

    Audio #2
    ID                          : 3
    Format                      : AC-3
    Format/Info                 : Audio Coding 3
    Commercial name             : Dolby Digital
    Codec ID                    : A_AC3
    Duration                    : 1 h 36 min
    Bit rate mode               : Constant
    Bit rate                    : 640 kb/s
    Channel(s)                  : 6 channels
    Channel layout              : L R C LFE Ls Rs
    Sampling rate               : 48.0 kHz
    Frame rate                  : 31.250 FPS (1536 SPF)
    Bit depth                   : 16 bits
    Compression mode            : Lossy
    Stream size                 : 440 MiB (6%)
    Title                       : AC3_5.1_Bluray_Eng
    Language                    : English
    Service kind                : Complete Main
    Default                     : No
    Forced                      : No

    Text #1
    ID                          : 4
    Format                      : PGS
    Muxing mode                 : zlib
    Codec ID                    : S_HDMV/PGS
    Codec ID/Info               : Picture based subtitle format used on BDs/HD-DVDs
    Duration                    : 1 h 35 min
    Bit rate                    : 25.6 kb/s
    Count of elements           : 1716
    Stream size                 : 17.5 MiB (0%)
    Title                       : Sub_Esp [PGS]
    Language                    : Spanish
    Default                     : No
    Forced                      : No

    Text #2
    ID                          : 5
    Format                      : PGS
    Muxing mode                 : zlib
    Codec ID                    : S_HDMV/PGS
    Codec ID/Info               : Picture based subtitle format used on BDs/HD-DVDs
    Duration                    : 1 h 35 min
    Bit rate                    : 33.7 kb/s
    Count of elements           : 2400
    Stream size                 : 23.1 MiB (0%)
    Title                       : Sub_Eng [PGS]
    Language                    : English
    Default                     : No
    Forced                      : No

    Text #3
    ID                          : 6
    Format                      : UTF-8
    Codec ID                    : S_TEXT/UTF8
    Codec ID/Info               : UTF-8 Plain Text
    Duration                    : 1 h 28 min
    Bit rate                    : 46 b/s
    Count of elements           : 863
    Stream size                 : 30.0 KiB (0%)
    Title                       : Sub_Esp
    Language                    : Spanish
    Default                     : No
    Forced                      : No

    Menu
    00:00:00.000                : :Newsreel
    00:02:39.409                : :Meet Ellie
    00:07:14.184                : :Married Life
    00:11:37.488                : :Carl Alone
    00:13:33.479                : :Construction Zone
    00:15:22.088                : :Russell
    00:17:35.888                : :Carl's Mistake
    00:20:25.141                : :Carl Goes Up
    00:24:31.303                : :Interrupted
    00:26:23.791                : :Storm
    00:28:02.556                : :Where Are We?
    00:29:40.237                : :Stuck
    00:33:20.165                : :The Journey Begins
    00:34:20.392                : :Hunting Dogs
    00:35:14.487                : :Kevin
    00:39:49.512                : :Dug
    00:42:34.844                : :Talking Dogs
    00:44:41.179                : :Ditch 'em
    00:46:17.233                : :Campfire
    00:49:19.123                : :Hunters Come to Camp
    00:52:20.929                : :Muntz
    00:55:23.987                : :Dinner
    01:00:33.547                : :Pursuit
    01:04:19.189                : :Stuff I Remember Most
    01:06:14.304                : :Muntz Takes Kevin
    01:08:58.009                : :Paradise Falls
    01:10:20.717                : :Message From Ellie
    01:13:35.328                : :Cleaning House
    01:15:24.353                : :Rescue Russell
    01:17:52.751                : :Rescue Kevin
    01:19:45.864                : :Old Man Fight
    01:21:53.867                : :Dogfight
    01:23:23.290                : :Atop the Dirigible
    01:26:02.658                : :Back Home
    01:29:02.420                : :Credits

  • Peso: 7.06 GiB

Sinopsis

Descargar Up: Una aventura de altura (2009) 4K UHD HDR Latino. Cuenta la historia de un vendedor de globos de 78 años, Carl Fredricksen, quien finamente consigue llevar a cabo el sueño de su vida al enganchar miles de globos a su casa y salir volando rumbo a América del Sur. Pero descubre demasiado tarde que la mayor de sus pesadillas se ha embarcado también en el viaje: un explorador de la jungla llamado Russell, que tiene 8 años y un optimismo a prueba de bombas.

Ficha técnica

Video trailer de la película

Enlaces de descarga

Rip de Bluray

Descargar Up: Una aventura de altura (2009) 4K UHD HDR Latino




Aportes de DPeliculasHDmega la pass es:dpeliculashdmega.org Aportes de CinemaniaHD la pass es:cinemaniahdd.com
Guardado en : 4K HDR , 4K UHD , Animación , Aventura , Comedia , Familia

Películas relacionadas

descargar Up: Una aventura de altura (2009) 4K UHD HDR Latino Full 1080p 1080p gratis, Up: Una aventura de altura (2009) 4K UHD HDR Latino Full 1080p mega 1 link, Up: Una aventura de altura (2009) 4K UHD HDR Latino Full 1080p pelicula completa, descargar Up: Una aventura de altura (2009) 4K UHD HDR Latino Full 1080p gratis en mega.

Up: Una aventura de altura (2009) 4K UHD HDR Latino pelicula full hd, Up: Una aventura de altura (2009) 4K UHD HDR Latino mega latino, Up: Una aventura de altura (2009) 4K UHD HDR Latino 4k latino, Up: Una aventura de altura (2009) 4K UHD HDR Latino pelicula completa, Up: Una aventura de altura (2009) 4K UHD HDR Latino descargar gratis, descargar Up: Una aventura de altura (2009) 4K UHD HDR Latino pelicula latino, Up: Una aventura de altura (2009) 4K UHD HDR Latino 1 link mega, Up: Una aventura de altura (2009) 4K UHD HDR Latino 1 link google drive, Up: Una aventura de altura (2009) 4K UHD HDR Latino hd 1080p latino.
Comentarios 0