×

¿Problemas para descargar con Mozilla, EDGE? Deshabilita la opción "Abrir vinculos en una pestaña nueva" tal como lo muestra ésta imagen.

Unstoppable (2010) Open Matte 1080i Latino – CMHDD

134 vistas

Información de Unstoppable (2010) Open Matte 1080i Latino – CMHDD

Datos de la película

  • Calidad: WEBDL
  • Audio: Español Latino AC3 5.1 BLURAY - Ingles DTS 5.1 BLURAY
  • Subtitulos: Español Latino PGS
  • Resolución: 19201080p
  • Formato: MKV
  • Codec: H.264
  • Encoder: Dracarys
  • Mediainfo: Clic para Mostrar Datos Ver
  • Format                      : Matroska
    Format version              : Version 4
    File size                   :11.6 GiB
    Duration                    : 1 h 38 min
    Overall bit rate            : 16.9 Mb/s
    Movie name                  : Unstoppable (2010) Open Matte 1080i Latino – CMHDD
    Encoded date                : UTC 2023-09-30 01:24:34
    Writing application         : mkvmerge v47.0.0 ('Black Flag') 64-bit
    Writing library             : libebml v1.3.10 + libmatroska v1.5.2

    Video
    ID                          : 1
    Format                      : AVC
    Format/Info                 : Advanced Video Codec
    Format profile              : High@L4.1
    Format settings             : CABAC / 4 Ref Frames
    Format settings, CABAC      : Yes
    Format settings, Reference  : 4 frames
    Codec ID                    : V_MPEG4/ISO/AVC
    Duration                    : 1 h 38 min
    Bit rate                    : 15.0 Mb/s
    Width                       : 1 920 pixels
    Height                      : 1 080 pixels
    Display aspect ratio        : 16:9
    Frame rate mode             : Constant
    Frame rate                  : 23.976 (24000/1001) FPS
    Color space                 : YUV
    Chroma subsampling          : 4:2:0
    Bit depth                   : 8 bits
    Scan type                   : Progressive
    Bits/(Pixel*Frame)          : 0.302
    Stream size                 : 10.3 GiB (88%)
    Writing library             : x264 core 148 r2665 a01e339
    Encoding settings           : cabac=1 / ref=4 / deblock=1:-3:-3 / analyse=0x3:0x113 / me=umh / subme=10 / psy=1 / psy_rd=1.00:0.00 / mixed_ref=1 / me_range=32 / chroma_me=1 / trellis=2 / 8x8dct=1 / cqm=0 / deadzone=21,11 / fast_pskip=0 / chroma_qp_offset=-2 / threads=12 / lookahead_threads=2 / sliced_threads=0 / nr=0 / decimate=0 / interlaced=0 / bluray_compat=0 / constrained_intra=0 / bframes=8 / b_pyramid=2 / b_adapt=2 / b_bias=0 / direct=3 / weightb=1 / open_gop=0 / weightp=2 / keyint=240 / keyint_min=23 / scenecut=40 / intra_refresh=0 / rc_lookahead=60 / rc=2pass / mbtree=0 / bitrate=15000 / ratetol=1.0 / qcomp=0.60 / qpmin=0 / qpmax=69 / qpstep=4 / cplxblur=20.0 / qblur=0.5 / vbv_maxrate=62500 / vbv_bufsize=78125 / nal_hrd=none / filler=0 / ip_ratio=1.40 / pb_ratio=1.30 / aq=1:1.00
    Language                    : English
    Default                     : Yes
    Forced                      : No

    Audio #1
    ID                          : 2
    Format                      : AC-3
    Format/Info                 : Audio Coding 3
    Commercial name             : Dolby Digital
    Codec ID                    : A_AC3
    Duration                    : 1 h 38 min
    Bit rate mode               : Constant
    Bit rate                    : 448 kb/s
    Channel(s)                  : 6 channels
    Channel layout              : L R C LFE Ls Rs
    Sampling rate               : 48.0 kHz
    Frame rate                  : 31.250 FPS (1536 SPF)
    Compression mode            : Lossy
    Stream size                 : 316 MiB (3%)
    Language                    : Spanish
    Service kind                : Complete Main
    Default                     : Yes
    Forced                      : No

    Audio #2
    ID                          : 3
    Format                      : DTS
    Format/Info                 : Digital Theater Systems
    Codec ID                    : A_DTS
    Duration                    : 1 h 38 min
    Bit rate mode               : Constant
    Bit rate                    : 1 509 kb/s
    Channel(s)                  : 6 channels
    Channel layout              : C L R Ls Rs LFE
    Sampling rate               : 48.0 kHz
    Frame rate                  : 93.750 FPS (512 SPF)
    Bit depth                   : 24 bits
    Compression mode            : Lossy
    Stream size                 : 1.04 GiB (9%)
    Language                    : English
    Default                     : No
    Forced                      : No

    Text
    ID                          : 4
    Format                      : PGS
    Muxing mode                 : zlib
    Codec ID                    : S_HDMV/PGS
    Codec ID/Info               : Picture based subtitle format used on BDs/HD-DVDs
    Duration                    : 1 h 37 min
    Bit rate                    : 43.0 kb/s
    Frame rate                  : 0.450 FPS
    Count of elements           : 2638
    Stream size                 : 30.0 MiB (0%)
    Language                    : Spanish
    Default                     : No
    Forced                      : No

    Menu
    00:00:00.000                : Chapter 01
    00:04:45.618                : Chapter 02
    00:09:41.455                : Chapter 03
    00:14:37.668                : Chapter 04
    00:18:10.964                : Chapter 05
    00:20:58.840                : Chapter 06
    00:22:58.919                : Chapter 07
    00:25:31.363                : Chapter 08
    00:30:16.523                : Chapter 09
    00:33:58.411                : Chapter 10
    00:37:38.506                : Chapter 11
    00:39:59.105                : Chapter 12
    00:41:28.569                : Chapter 13
    00:46:36.919                : Chapter 14
    00:49:18.705                : Chapter 15
    00:52:24.933                : Chapter 16
    00:54:13.583                : Chapter 17
    00:58:44.145                : Chapter 18
    01:01:02.742                : Chapter 19
    01:03:14.290                : Chapter 20
    01:07:20.786                : Chapter 21
    01:10:00.154                : Chapter 22
    01:15:11.465                : Chapter 23
    01:18:24.533                : Chapter 24
    01:21:13.410                : Chapter 25
    01:24:53.505                : Chapter 26
    01:30:31.551                : Chapter 27
    01:32:58.864                : Chapter 28

     

  • Peso: 11.6 GiB

Sinopsis

El destino cruza las vidas de un veterano ingeniero y la de un joven conductor cuando ambos tengan que aunar sus fuerzas para enfrentarse a una peligrosa misión. Un ferrocarril cargado de material altamente toxico ha perdido el control y se encuentra avanzando sin dirección llevándose por delante todo lo que va encontrándose a su paso.Ambos hombres tendrán que hacer que el tren pare antes de descarrilar, evitando así que suceda una tragedia de enormes dimensiones físicas y humanas

Ficha técnica

  • Titulo original: Unstoppable
  • Fecha de lanzamiento: 04-11-2010 (United States of America)
  • Director: Tony Scott
  • Género: Acción, Suspenso

Video trailer de la película

Enlaces de descarga

Rip de Bluray

Descargar Unstoppable (2010) Open Matte 1080i Latino – CMHDD




Aportes de DPeliculasHDmega la pass es:dpeliculashdmega.org Aportes de CinemaniaHD la pass es:cinemaniahdd.com Aportes recientes:cinemaniahdd.net
Guardado en : Acción , Suspenso

Películas relacionadas

descargar Unstoppable (2010) Open Matte 1080i Latino – CMHDD WEBDL 1080p gratis, Unstoppable (2010) Open Matte 1080i Latino – CMHDD WEBDL mega 1 link, Unstoppable (2010) Open Matte 1080i Latino – CMHDD WEBDL pelicula completa, descargar Unstoppable (2010) Open Matte 1080i Latino – CMHDD WEBDL gratis en mega.

Unstoppable (2010) Open Matte 1080i Latino – CMHDD pelicula full hd, Unstoppable (2010) Open Matte 1080i Latino – CMHDD mega latino, Unstoppable (2010) Open Matte 1080i Latino – CMHDD 4k latino, Unstoppable (2010) Open Matte 1080i Latino – CMHDD pelicula completa, Unstoppable (2010) Open Matte 1080i Latino – CMHDD descargar gratis, descargar Unstoppable (2010) Open Matte 1080i Latino – CMHDD pelicula latino, Unstoppable (2010) Open Matte 1080i Latino – CMHDD 1 link mega, Unstoppable (2010) Open Matte 1080i Latino – CMHDD 1 link google drive, Unstoppable (2010) Open Matte 1080i Latino – CMHDD hd 1080p latino.
Comentarios 0