Unsolved (2019) Temporada 1 NF WEB-DL 1080p

372 vistas
1 estrella2 estrellas3 estrellas4 estrellas5 estrellas (Ninguna valoración todavía)
Cargando…

Información de Unsolved (2019) Temporada 1 NF WEB-DL 1080p

Datos de la película

  • Calidad: WEBDL
  • Audio: Español Latino AC3 5.1 Netflix - Ingles AC3 5.1 Netflix
  • Subtitulos: Español Latino SRT- FORZADOS SRT
  • Resolución: !920x1080
  • Formato: MKV
  • Codec: H.264
  • Encoder: cinemanihdd
  • Mediainfo: Clic para Mostrar Datos Ver
  • Unsolved S01E01 NF 1080p WEB-DL Latino.mkv
    Format                      : Matroska
    Format version              : Version 4
    File size                   : 1.57 GiB
    Duration                    : 56 min 21 s
    Overall bit rate mode       : Variable
    Overall bit rate            : 3 987 kb/s
    Movie name                  : Unsolved S01E01
    Encoded date                : UTC 2019-03-01 16:29:27 / UTC 2019-01-31 12:06:45
    Writing application         : mkvmerge v11.0.0 ('Alive') 64bit
    Writing library             : libebml v1.3.4 + libmatroska v1.4.5 / Lavf58.0.0

    Video
    ID                          : 1
    Format                      : AVC
    Format/Info                 : Advanced Video Codec
    Format profile              : [email protected]
    Format settings             : CABAC / 4 Ref Frames
    Format settings, CABAC      : Yes
    Format settings, ReFrames   : 4 frames
    Codec ID                    : V_MPEG4/ISO/AVC
    Duration                    : 56 min 21 s
    Bit rate mode               : Variable
    Bit rate                    : 3 140 kb/s
    Maximum bit rate            : 20.0 Mb/s
    Width                       : 1 920 pixels
    Height                      : 1 080 pixels
    Display aspect ratio        : 16:9
    Frame rate mode             : Constant
    Frame rate                  : 23.976 (24000/1001) FPS
    Color space                 : YUV
    Chroma subsampling          : 4:2:0
    Bit depth                   : 8 bits
    Scan type                   : Progressive
    Bits/(Pixel*Frame)          : 0.063
    Stream size                 : 1.24 GiB (79%)
    Title                       : CinemaniaHDD
    Writing library             : x264 core 148 r2715 7e75228
    Encoding settings           : cabac=1 / ref=4 / deblock=1:0:0 / analyse=0x3:0x111 / me=umh / subme=10 / psy=1 / psy_rd=1.00:0.00 / mixed_ref=1 / me_range=120 / chroma_me=1 / trellis=2 / 8x8dct=1 / cqm=0 / deadzone=21,11 / fast_pskip=1 / chroma_qp_offset=-2 / threads=8 / lookahead_threads=2 / sliced_threads=0 / nr=0 / decimate=1 / interlaced=0 / bluray_compat=0 / stitchable=1 / constrained_intra=0 / bframes=16 / b_pyramid=2 / b_adapt=2 / b_bias=0 / direct=3 / weightb=1 / open_gop=0 / weightp=2 / keyint=240 / keyint_min=121 / scenecut=0 / intra_refresh=0 / rc_lookahead=240 / rc=crf / mbtree=1 / crf=20.0 / qcomp=0.50 / qpmin=6 / qpmax=51 / qpstep=4 / vbv_maxrate=20000 / vbv_bufsize=25000 / crf_max=0.0 / nal_hrd=vbr / filler=0 / ip_ratio=1.40 / aq=1:0.80
    Default                     : Yes
    Forced                      : No
    Statistics Tags Issue       : mkvmerge v11.0.0 ('Alive') 64bit 2019-03-01 16:29:27 / mkvmerge v11.0.0 ('Alive') 64bit 2019-03-01 16:29:27 / UTC 2019-01-31 12:06:45
    FromStats_BitRate           : 3217820
    FromStats_Duration          : 00:56:21.253000000
    FromStats_FrameCount        : 81069
    FromStats_StreamSize        : 1360033053

    Audio #1
    ID                          : 2
    Format                      : AC-3
    Format/Info                 : Audio Coding 3
    Commercial name             : Dolby Digital
    Codec ID                    : A_AC3
    Duration                    : 56 min 21 s
    Bit rate mode               : Constant
    Bit rate                    : 384 kb/s
    Channel(s)                  : 6 channels
    Channel layout              : L R C LFE Ls Rs
    Sampling rate               : 48.0 kHz
    Frame rate                  : 31.250 FPS (1536 SPF)
    Bit depth                   : 16 bits
    Compression mode            : Lossy
    Stream size                 : 155 MiB (10%)
    Title                       : Español latino [CinemaniaHDD]
    Language                    : Spanish
    Service kind                : Complete Main
    Default                     : Yes
    Forced                      : No
    Encoded date                : UTC 2019-01-31 12:06:43
    Statistics Tags Issue       : mkvmerge v11.0.0 ('Alive') 64bit 2019-03-01 16:29:27 / mkvmerge v11.0.0 ('Alive') 64bit 2019-03-01 16:29:27 / UTC 2019-01-31 12:06:45
    FromStats_BitRate           : 384000
    FromStats_Duration          : 00:56:21.920000000
    FromStats_FrameCount        : 105685
    FromStats_StreamSize        : 162332160

    Audio #2
    ID                          : 3
    Format                      : AC-3
    Format/Info                 : Audio Coding 3
    Commercial name             : Dolby Digital
    Codec ID                    : A_AC3
    Duration                    : 56 min 21 s
    Bit rate mode               : Constant
    Bit rate                    : 384 kb/s
    Channel(s)                  : 6 channels
    Channel layout              : L R C LFE Ls Rs
    Sampling rate               : 48.0 kHz
    Frame rate                  : 31.250 FPS (1536 SPF)
    Bit depth                   : 16 bits
    Compression mode            : Lossy
    Stream size                 : 155 MiB (10%)
    Title                       : Inglés [CinemaniaHDD]
    Language                    : English
    Service kind                : Complete Main
    Default                     : No
    Forced                      : No
    Encoded date                : UTC 2019-01-31 12:06:45
    Statistics Tags Issue       : mkvmerge v11.0.0 ('Alive') 64bit 2019-03-01 16:29:27 / mkvmerge v11.0.0 ('Alive') 64bit 2019-03-01 16:29:27 / UTC 2019-01-31 12:06:45
    FromStats_BitRate           : 384000
    FromStats_Duration          : 00:56:21.920000000
    FromStats_FrameCount        : 105685
    FromStats_StreamSize        : 162332160

    Text #1
    ID                          : 4
    Format                      : UTF-8
    Codec ID                    : S_TEXT/UTF8
    Codec ID/Info               : UTF-8 Plain Text
    Title                       : Forzados [CinemaniaHDD]
    Language                    : Spanish
    Default                     : Yes
    Forced                      : Yes
    Statistics Tags Issue       : mkvmerge v11.0.0 ('Alive') 64bit 2019-03-01 16:29:27 / mkvmerge v11.0.0 ('Alive') 64bit 2019-03-01 16:29:27 / UTC 2019-01-31 12:06:45
    FromStats_BitRate           : 4
    FromStats_Duration          : 00:55:35.332000000
    FromStats_FrameCount        : 49
    FromStats_StreamSize        : 1998

    Text #2
    ID                          : 5
    Format                      : UTF-8
    Codec ID                    : S_TEXT/UTF8
    Codec ID/Info               : UTF-8 Plain Text
    Title                       : Español latino [CinemaniaHDD]
    Language                    : Spanish
    Default                     : No
    Forced                      : No
    Statistics Tags Issue       : mkvmerge v11.0.0 ('Alive') 64bit 2019-03-01 16:29:27 / mkvmerge v11.0.0 ('Alive') 64bit 2019-03-01 16:29:27 / UTC 2019-01-31 12:06:45
    FromStats_BitRate           : 70
    FromStats_Duration          : 00:55:35.332000000
    FromStats_FrameCount        : 890
    FromStats_StreamSize        : 29539

  • Peso: 1.57 GiB Aprox. Total 10.2 GiB

Sinopsis

Unsolved : The Murders of Tupac and the Notorious B.I.G. sigue dos de las investigaciones de crímenes más importante realizadas por el detective Greg Kading sobre los asesinatos de Tupac Shakur y Biggie Smalls.

La ficción es una producción de Anthony Hemingway, Mark Taylor, Kyle Long y el propio detective Kading. La serie protagonizada por Josh Duhamel, Marcc Rose y Wavyy Jonez también incluye en su reparto a Jimmi Simpson (Westworld), Bokeem Woodbine (Fargo), Aisha Hinds (Underground), Letoya Luckett (Rosewood), Brent Sexton (El asesino) y Luke James (Nacimiento Negro).

Ficha técnica

  • Titulo original: Unsolved: The Murders of Tupac and The Notorious B.I.G.
  • Fecha de lanzamiento: 27-02-2018 (US)
  • Director: Kyle Long
  • Género: Crimen, Drama, Series
  • Puntuación: 0.0 0 votos
  • Duración:
    0h 42m

Video trailer de la película

Enlaces de descarga

Rip de Bluray

Descargar Unsolved (2019) Temporada 1 NF WEB-DL 1080p




Aportes de DPeliculasHDmega la pass es:dpeliculashdmega.org Aportes de CinemaniaHD la pass es:cinemaniahdd.com
Guardado en : Crimen , Drama , Series

Películas relacionadas

  • Las Dos Reinas (2018) 4K UHD HDR Latino

    2018
    Las Dos Reinas (2018) 4K UHD HDR Latino

    5.0 2h 5m 2018

    Descargar Las Dos Reinas (2018) 4K UHD HDR Latino, Mega, Google Drive. Dos mujeres rivales en el poder...

    Director: Josie Rourke

    Género: 4K HDR

    Actores: Thom Petty

  • The Mule (2018) 1080p Latino

    2018
    The Mule (2018) 1080p Latino

    0.0 1h 56m 2018

    A Earl Stone (Eastwood), un octogenario que está en quiebra, solo, y que se enfrenta a la ejecución...

    Director: Clint Eastwood

    Género: Crimen

    Actores: Victor Rasuk

  • The mule (2018) WEB-DL 1080p Latino

    2018
    The mule (2018) WEB-DL 1080p Latino

    0.0 1h 56m 2018

    A Earl Stone (Eastwood), un octogenario que está en quiebra, solo, y que se enfrenta a la ejecución...

    Director: Clint Eastwood

    Género: Crimen

    Actores: Victor Rasuk

  • Nace Una Estrella (2018) 4K UHD HDR Latino

    2018
    Nace Una Estrella (2018) 4K UHD HDR Latino

    0.0 2h 25m 2018

    Descargar Nace Una Estrella (2018) 4K UHD HDR Latino, Mega, Google Drive. Jackson Maine es una estrella...

    Director: Bradley Cooper

    Género: 4K HDR

    Actores: Willam Belli

Comentarios 0