×

¿Problemas para descargar con Mozilla, EDGE? Deshabilita la opción "Abrir vinculos en una pestaña nueva" tal como lo muestra ésta imagen.

Uno De Nosotros (2020) HD 1080p Latino

205 vistas

Información de Uno De Nosotros (2020) HD 1080p Latino

Datos de la película

  • Calidad: 1080p
  • Audio: Español Latino AC3 5.1 BLURAY - Ingles AC3 5.1 BLURAY
  • Subtitulos: Español Latino SRT- FORZADOS SRT
  • Resolución: 1920x804p
  • Formato: MKV
  • Codec: H.264
  • Encoder: Melkor
  • Mediainfo: Clic para Mostrar Datos Ver
  • Uno De Nosotros (2020) HD 1080p Latino.mkv
    Format                      : Matroska
    Format version              : Version 4
    File size                   : 3.61 GiB
    Duration                    : 1 h 53 min
    Overall bit rate            : 4 546 kb/s
    Movie name                  : Let Him Go (2020) CinemaniaHDD.Net
    Encoded date                : UTC 2021-01-26 21:01:35
    Writing application         : mkvmerge v51.0.0 ('I Wish') 64-bit
    Writing library             : libebml v1.4.0 + libmatroska v1.6.2
    Attachments                 : CINEMANIAHD.png

    Video
    ID                          : 1
    Format                      : AVC
    Format/Info                 : Advanced Video Codec
    Format profile              : High@L4.1
    Format settings             : CABAC / 5 Ref Frames
    Format settings, CABAC      : Yes
    Format settings, Reference  : 5 frames
    Codec ID                    : V_MPEG4/ISO/AVC
    Duration                    : 1 h 53 min
    Bit rate                    : 3 500 kb/s
    Width                       : 1 920 pixels
    Height                      : 804 pixels
    Display aspect ratio        : 2.40:1
    Frame rate mode             : Constant
    Frame rate                  : 23.976 (24000/1001) FPS
    Color space                 : YUV
    Chroma subsampling          : 4:2:0
    Bit depth                   : 8 bits
    Scan type                   : Progressive
    Bits/(Pixel*Frame)          : 0.095
    Stream size                 : 2.74 GiB (76%)
    Title                       : HD1080p [CinemaniaHDD]
    Writing library             : x264 core 157 r2935 545de2f
    Encoding settings           : cabac=1 / ref=5 / deblock=1:-1:-1 / analyse=0x3:0x133 / me=umh / subme=9 / psy=1 / psy_rd=1.00:0.15 / mixed_ref=1 / me_range=16 / chroma_me=1 / trellis=2 / 8x8dct=1 / cqm=0 / deadzone=21,11 / fast_pskip=1 / chroma_qp_offset=-3 / threads=24 / lookahead_threads=2 / sliced_threads=0 / nr=0 / decimate=1 / interlaced=0 / bluray_compat=0 / constrained_intra=0 / bframes=3 / b_pyramid=2 / b_adapt=2 / b_bias=0 / direct=3 / weightb=1 / open_gop=0 / weightp=2 / keyint=240 / keyint_min=24 / scenecut=40 / intra_refresh=0 / rc_lookahead=60 / rc=abr / mbtree=1 / bitrate=3500 / ratetol=1.0 / qcomp=0.60 / qpmin=0 / qpmax=69 / qpstep=4 / vbv_maxrate=62500 / vbv_bufsize=78125 / nal_hrd=none / filler=0 / ip_ratio=1.40 / aq=1:1.00
    Default                     : Yes
    Forced                      : No
    Color range                 : Limited
    Color primaries             : BT.709
    Transfer characteristics    : BT.709
    Matrix coefficients         : BT.709

    Audio #1
    ID                          : 2
    Format                      : AC-3
    Format/Info                 : Audio Coding 3
    Commercial name             : Dolby Digital
    Codec ID                    : A_AC3
    Duration                    : 1 h 53 min
    Bit rate mode               : Constant
    Bit rate                    : 640 kb/s
    Channel(s)                  : 6 channels
    Channel layout              : L R C LFE Ls Rs
    Sampling rate               : 48.0 kHz
    Frame rate                  : 31.250 FPS (1536 SPF)
    Compression mode            : Lossy
    Delay relative to video     : -5 ms
    Stream size                 : 520 MiB (14%)
    Title                       : Español Latino [CinemaniaHDD]
    Language                    : Spanish
    Service kind                : Complete Main
    Default                     : Yes
    Forced                      : No

    Audio #2
    ID                          : 3
    Format                      : AC-3
    Format/Info                 : Audio Coding 3
    Commercial name             : Dolby Digital
    Codec ID                    : A_AC3
    Duration                    : 1 h 53 min
    Bit rate mode               : Constant
    Bit rate                    : 448 kb/s
    Channel(s)                  : 6 channels
    Channel layout              : L R C LFE Ls Rs
    Sampling rate               : 48.0 kHz
    Frame rate                  : 31.250 FPS (1536 SPF)
    Compression mode            : Lossy
    Delay relative to video     : -5 ms
    Stream size                 : 364 MiB (10%)
    Title                       : Ingles [CinemaniaHDD]
    Language                    : English
    Service kind                : Complete Main
    Default                     : No
    Forced                      : No

    Text #1
    ID                          : 4
    Format                      : UTF-8
    Codec ID                    : S_TEXT/UTF8
    Codec ID/Info               : UTF-8 Plain Text
    Duration                    : 2 s 711 ms
    Bit rate                    : 88 b/s
    Count of elements           : 1
    Stream size                 : 30.0 Bytes (0%)
    Title                       : Forzados-SRT [CinemaniaHDD]
    Language                    : Spanish
    Default                     : Yes
    Forced                      : No

    Text #2
    ID                          : 5
    Format                      : UTF-8
    Codec ID                    : S_TEXT/UTF8
    Codec ID/Info               : UTF-8 Plain Text
    Duration                    : 1 h 45 min
    Bit rate                    : 43 b/s
    Count of elements           : 1185
    Stream size                 : 33.6 KiB (0%)
    Title                       : Español-SRT [CinemaniaHDD]
    Language                    : Spanish
    Default                     : No
    Forced                      : No

    Text #3
    ID                          : 6
    Format                      : UTF-8
    Codec ID                    : S_TEXT/UTF8
    Codec ID/Info               : UTF-8 Plain Text
    Duration                    : 1 h 45 min
    Bit rate                    : 41 b/s
    Count of elements           : 1103
    Stream size                 : 32.0 KiB (0%)
    Title                       : Ingles-SRT [CinemaniaHDD]
    Language                    : English
    Default                     : No
    Forced                      : No

    Menu
    00:00:00.000                : en:Chapter 01
    00:06:05.740                : en:Chapter 02
    00:12:56.734                : en:Chapter 03
    00:18:12.049                : en:Chapter 04
    00:23:22.734                : en:Chapter 05
    00:29:00.238                : en:Chapter 06
    00:34:42.246                : en:Chapter 07
    00:38:45.656                : en:Chapter 08
    00:42:19.453                : en:Chapter 09
    00:45:53.584                : en:Chapter 10
    00:53:16.318                : en:Chapter 11
    00:58:57.242                : en:Chapter 12
    01:06:27.316                : en:Chapter 13
    01:12:55.245                : en:Chapter 14
    01:19:46.573                : en:Chapter 15
    01:23:43.351                : en:Chapter 16
    01:31:51.172                : en:Chapter 17
    01:40:26.687                : en:Chapter 18
    01:45:31.450                : en:Chapter 19
    01:47:58.889                : en:Chapter 20

  • Peso: 3.61 GiB

Sinopsis

Decargar Uno De Nosotros (2020) HD 1080p Latino. Tras sufrir la pérdida de su hijo, el sheriff jubilado George Blackledge y su mujer Margaret dejan su rancho en Montana para tratar de rescatar a su nieto en Dakota. El niño está bajo la tutela de la poderosa familia Weboy, pues la nuera se ha vuelto a casar con otro hombre. La matriarca Blanche Weboy, tras descubrir las intenciones de los Blackledge, decide hacer todo lo posible para impedir que el niño regrese con sus abuelos.

Ficha técnica

Video trailer de la película

Enlaces de descarga

Rip de Bluray

Descargar Uno De Nosotros (2020) HD 1080p Latino




Aportes de DPeliculasHDmega la pass es:dpeliculashdmega.org Aportes de CinemaniaHD la pass es:cinemaniahdd.com
Guardado en : Drama , Crimen , HD 1080p , Suspenso

Películas relacionadas

descargar Uno De Nosotros (2020) HD 1080p Latino 1080p 1080p gratis, Uno De Nosotros (2020) HD 1080p Latino 1080p mega 1 link, Uno De Nosotros (2020) HD 1080p Latino 1080p pelicula completa, descargar Uno De Nosotros (2020) HD 1080p Latino 1080p gratis en mega.

Uno De Nosotros (2020) HD 1080p Latino pelicula full hd, Uno De Nosotros (2020) HD 1080p Latino mega latino, Uno De Nosotros (2020) HD 1080p Latino 4k latino, Uno De Nosotros (2020) HD 1080p Latino pelicula completa, Uno De Nosotros (2020) HD 1080p Latino descargar gratis, descargar Uno De Nosotros (2020) HD 1080p Latino pelicula latino, Uno De Nosotros (2020) HD 1080p Latino 1 link mega, Uno De Nosotros (2020) HD 1080p Latino 1 link google drive, Uno De Nosotros (2020) HD 1080p Latino hd 1080p latino.
Comentarios 0