×

¿Problemas para descargar con Mozilla, EDGE? Deshabilita la opción "Abrir vinculos en una pestaña nueva" tal como lo muestra ésta imagen.

Unmasking Jihadi John: Anatomy of a Terrorist (2019) AMZN WEB-DL 1080p Latino

866 vistas

Información de Unmasking Jihadi John: Anatomy of a Terrorist (2019) AMZN WEB-DL 1080p Latino

Datos de la película

  • Calidad: WEBDL
  • Audio: Español Latino AC3 2.0 - Ingles AC3 2.0
  • Subtitulos: Español Latino SRT- FORZADOS SRT
  • Resolución: 1920x1080
  • Formato: MKV
  • Codec: H.264
  • Encoder: cinemaniahdd
  • Mediainfo: Clic para Mostrar Datos Ver
  • Desenmascarando A Jihadi John, Anatomía De Un Terrorista (2019) AMZN WEB-DL 1080p Latino.mkv
    Format                      : Matroska
    Format version              : Version 4
    File size                   : 6.74 GiB
    Duration                    : 1 h 37 min
    Overall bit rate            : 9 913 kb/s
    Movie name                  : Desenmascarando A Jihadi John, Anatomía De Un Terrorista (2019) - CinemaniaHDD.Net
    Encoded date                : UTC 2019-10-27 20:45:07
    Writing application         : mkvmerge v38.0.0 ('The Silent Type') 64-bit
    Writing library             : libebml v1.3.9 + libmatroska v1.5.2

    Video
    ID                          : 1
    Format                      : AVC
    Format/Info                 : Advanced Video Codec
    Format profile              : High@L4
    Format settings             : CABAC / 4 Ref Frames
    Format settings, CABAC      : Yes
    Format settings, ReFrames   : 4 frames
    Codec ID                    : V_MPEG4/ISO/AVC
    Duration                    : 1 h 37 min
    Bit rate mode               : Constant
    Bit rate                    : 9 430 kb/s
    Nominal bit rate            : 10 000 kb/s
    Width                       : 1 920 pixels
    Height                      : 1 080 pixels
    Display aspect ratio        : 16:9
    Frame rate mode             : Constant
    Frame rate                  : 23.976 (24000/1001) FPS
    Color space                 : YUV
    Chroma subsampling          : 4:2:0
    Bit depth                   : 8 bits
    Scan type                   : Progressive
    Bits/(Pixel*Frame)          : 0.190
    Stream size                 : 6.42 GiB (95%)
    Title                       : CinemaniaHDD
    Language                    : English
    Default                     : Yes
    Forced                      : No
    Color range                 : Limited
    Color primaries             : BT.709
    Transfer characteristics    : BT.709
    Matrix coefficients         : BT.709

    Audio #1
    ID                          : 2
    Format                      : AC-3
    Format/Info                 : Audio Coding 3
    Commercial name             : Dolby Digital
    Codec ID                    : A_AC3
    Duration                    : 1 h 37 min
    Bit rate mode               : Constant
    Bit rate                    : 256 kb/s
    Channel(s)                  : 2 channels
    Channel layout              : L R
    Sampling rate               : 48.0 kHz
    Frame rate                  : 31.250 FPS (1536 SPF)
    Bit depth                   : 16 bits
    Compression mode            : Lossy
    Stream size                 : 178 MiB (3%)
    Title                       : Español latino [CinemaniaHDD]
    Language                    : Spanish
    Service kind                : Complete Main
    Default                     : Yes
    Forced                      : No

    Audio #2
    ID                          : 3
    Format                      : E-AC-3
    Format/Info                 : Enhanced AC-3
    Commercial name             : Dolby Digital Plus
    Codec ID                    : A_EAC3
    Duration                    : 1 h 37 min
    Bit rate mode               : Constant
    Bit rate                    : 224 kb/s
    Channel(s)                  : 2 channels
    Channel layout              : L R
    Sampling rate               : 48.0 kHz
    Frame rate                  : 31.250 FPS (1536 SPF)
    Compression mode            : Lossy
    Delay relative to video     : 17 ms
    Stream size                 : 156 MiB (2%)
    Title                       : Inglés [CinemaniaHDD]
    Language                    : English
    Service kind                : Complete Main
    Default                     : No
    Forced                      : No

    Text #1
    ID                          : 4
    Format                      : UTF-8
    Codec ID                    : S_TEXT/UTF8
    Codec ID/Info               : UTF-8 Plain Text
    Duration                    : 1 h 32 min
    Bit rate                    : 0 b/s
    Count of elements           : 24
    Stream size                 : 639 Bytes (0%)
    Title                       : Forzados [CinemaniaHDD]
    Language                    : Spanish
    Default                     : Yes
    Forced                      : Yes

    Text #2
    ID                          : 5
    Format                      : UTF-8
    Codec ID                    : S_TEXT/UTF8
    Codec ID/Info               : UTF-8 Plain Text
    Duration                    : 1 h 35 min
    Bit rate                    : 92 b/s
    Count of elements           : 1623
    Stream size                 : 65.1 KiB (0%)
    Title                       : Español latino [CinemaniaHDD]
    Language                    : Spanish
    Default                     : No
    Forced                      : No

    Text #3
    ID                          : 6
    Format                      : UTF-8
    Codec ID                    : S_TEXT/UTF8
    Codec ID/Info               : UTF-8 Plain Text
    Duration                    : 1 h 35 min
    Bit rate                    : 101 b/s
    Count of elements           : 1762
    Stream size                 : 70.5 KiB (0%)
    Title                       : Inglés [CinemaniaHDD]
    Language                    : English
    Default                     : No
    Forced                      : No

     

  • Peso: 6.74 GiB

Sinopsis

Este documental cuenta la historia interna detrás de la búsqueda del chico del cartel de ISIS «Jihadi John» por los servicios militares y de inteligencia estadounidenses y británicos. Interroga la retorcida cosmovisión adoptada por ISIS, la organización terrorista islamista más rica y notoria de la historia.

Ficha técnica

  • Titulo original: Unmasking Jihadi John: Anatomy of a Terrorist
  • Fecha de lanzamiento: 31-07-2019 (United Kingdom, United States of America)
  • Director: Anthony Wonke
  • Género: Documental, HBO

Video trailer de la película

Enlaces de descarga

Rip de Bluray

Descargar Unmasking Jihadi John: Anatomy of a Terrorist (2019) AMZN WEB-DL 1080p Latino




Aportes de DPeliculasHDmega la pass es:dpeliculashdmega.org Aportes de CinemaniaHD la pass es:cinemaniahdd.com
Guardado en : Documental , HBO

Películas relacionadas

Unmasking Jihadi John: Anatomy of a Terrorist (2019) AMZN WEB-DL 1080p Latino pelicula full hd, Unmasking Jihadi John: Anatomy of a Terrorist (2019) AMZN WEB-DL 1080p Latino mega latino, Unmasking Jihadi John: Anatomy of a Terrorist (2019) AMZN WEB-DL 1080p Latino 4k latino, Unmasking Jihadi John: Anatomy of a Terrorist (2019) AMZN WEB-DL 1080p Latino pelicula completa, Unmasking Jihadi John: Anatomy of a Terrorist (2019) AMZN WEB-DL 1080p Latino descargar gratis, descargar Unmasking Jihadi John: Anatomy of a Terrorist (2019) AMZN WEB-DL 1080p Latino pelicula latino, Unmasking Jihadi John: Anatomy of a Terrorist (2019) AMZN WEB-DL 1080p Latino 1 link mega, Unmasking Jihadi John: Anatomy of a Terrorist (2019) AMZN WEB-DL 1080p Latino 1 link google drive, Unmasking Jihadi John: Anatomy of a Terrorist (2019) AMZN WEB-DL 1080p Latino hd 1080p latino.
Comentarios 0