×

¿Problemas para descargar con Mozilla, EDGE? Deshabilita la opción "Abrir vinculos en una pestaña nueva" tal como lo muestra ésta imagen.

Unicorn Wars (2022) REMUX 1080p Latino

34 vistas

Información de Unicorn Wars (2022) REMUX 1080p Latino

Datos de la película

  • Calidad: Full 1080p
  • Audio: Se especifica abajo de la Sinopsis
  • Subtitulos: No
  • Resolución: 1920x1080p
  • Formato: MKV
  • Codec: H.264
  • Encoder: Melkor
  • Mediainfo: Clic para Mostrar Datos Ver
  • Unicorn Wars (2022) REMUX 1080p Latino.mkv
    Format                      : Matroska
    Format version              : Version 4
    File size                   : 25.5 GiB
    Duration                    : 1 h 32 min
    Overall bit rate mode       : Variable
    Overall bit rate            : 39.3 Mb/s
    Movie name                  : Unicorn Wars (2022) CinemaniaHDD.Net
    Encoded date                : UTC 2024-03-28 18:08:09
    Writing application         : mkvmerge v56.1.0 ('My Friend') 64-bit
    Writing library             : libebml v1.4.2 + libmatroska v1.6.4
    Attachments                 : CINEMANIAHD.png

    Video
    ID                          : 1
    Format                      : AVC
    Format/Info                 : Advanced Video Codec
    Format profile              : High@L4.1
    Format settings             : CABAC / 4 Ref Frames
    Format settings, CABAC      : Yes
    Format settings, Reference  : 4 frames
    Codec ID                    : V_MPEG4/ISO/AVC
    Duration                    : 1 h 32 min
    Bit rate mode               : Variable
    Bit rate                    : 34.7 Mb/s
    Maximum bit rate            : 38.0 Mb/s
    Width                       : 1 920 pixels
    Height                      : 1 080 pixels
    Display aspect ratio        : 16:9
    Frame rate mode             : Constant
    Frame rate                  : 24.000 FPS
    Color space                 : YUV
    Chroma subsampling          : 4:2:0
    Bit depth                   : 8 bits
    Scan type                   : Progressive
    Bits/(Pixel*Frame)          : 0.698
    Stream size                 : 22.5 GiB (88%)
    Title                       : REMUX HD1080p [CinemaniaHDD]
    Default                     : Yes
    Forced                      : Yes

    Audio #1
    ID                          : 2
    Format                      : AC-3
    Format/Info                 : Audio Coding 3
    Commercial name             : Dolby Digital
    Codec ID                    : A_AC3
    Duration                    : 1 h 32 min
    Bit rate mode               : Constant
    Bit rate                    : 384 kb/s
    Channel(s)                  : 6 channels
    Channel layout              : L R C LFE Ls Rs
    Sampling rate               : 48.0 kHz
    Frame rate                  : 31.250 FPS (1536 SPF)
    Compression mode            : Lossy
    Stream size                 : 255 MiB (1%)
    Title                       : Español Latino [CinemaniaHDD]
    Language                    : Spanish
    Service kind                : Complete Main
    Default                     : Yes
    Forced                      : Yes

    Audio #2
    ID                          : 3
    Format                      : DTS XLL
    Format/Info                 : Digital Theater Systems
    Commercial name             : DTS-HD Master Audio
    Codec ID                    : A_DTS
    Duration                    : 1 h 32 min
    Bit rate mode               : Variable
    Bit rate                    : 4 160 kb/s
    Channel(s)                  : 6 channels
    Channel layout              : C L R Ls Rs LFE
    Sampling rate               : 48.0 kHz
    Frame rate                  : 93.750 FPS (512 SPF)
    Bit depth                   : 24 bits
    Compression mode            : Lossless
    Stream size                 : 2.70 GiB (11%)
    Title                       : Castellano [CinemaniaHDD]
    Language                    : Spanish
    Default                     : No
    Forced                      : No

    Menu
    00:00:00.000                : Chapter 1
    00:04:44.875                : Chapter 2
    00:08:37.375                : Chapter 3
    00:12:07.417                : Chapter 4
    00:16:36.042                : Chapter 5
    00:22:08.417                : Chapter 6
    00:29:13.625                : Chapter 7
    00:36:30.750                : Chapter 8
    00:41:21.083                : Chapter 9
    00:50:02.208                : Chapter 10
    00:54:04.750                : Chapter 11
    01:01:40.292                : Chapter 12
    01:06:28.542                : Chapter 13
    01:10:05.708                : Chapter 14
    01:16:23.208                : Chapter 15
    01:21:14.042                : Chapter 16
    01:27:36.583                : Chapter 17

  • Peso: 25.5 GiB

Sinopsis

Descargar Unicorn Wars (2022) REMUX 1080p Latino. El ejército osito adoctrina a jóvenes reclutas para la guerra que libran contra los unicornios y amenaza la seguridad del pueblo osito. Los hermanos Azulín y Gordi, junto a un inexperto grupo de reclutas, serán enviados a una peligrosa misión para salvar el Bosque Mágico. ¿Estarán los ositos preparados para ello?

Español Latino AC3 5.1 – Español Iberico DTS HD 5.1

Ficha técnica

Video trailer de la película

Enlaces de descarga

Rip de Bluray

Descargar Unicorn Wars (2022) REMUX 1080p Latino




Aportes de DPeliculasHDmega la pass es:dpeliculashdmega.org Aportes de CinemaniaHD la pass es:cinemaniahdd.com Aportes recientes:cinemaniahdd.net

Películas relacionadas

descargar Unicorn Wars (2022) REMUX 1080p Latino Full 1080p 1080p gratis, Unicorn Wars (2022) REMUX 1080p Latino Full 1080p mega 1 link, Unicorn Wars (2022) REMUX 1080p Latino Full 1080p pelicula completa, descargar Unicorn Wars (2022) REMUX 1080p Latino Full 1080p gratis en mega.

Unicorn Wars (2022) REMUX 1080p Latino pelicula full hd, Unicorn Wars (2022) REMUX 1080p Latino mega latino, Unicorn Wars (2022) REMUX 1080p Latino 4k latino, Unicorn Wars (2022) REMUX 1080p Latino pelicula completa, Unicorn Wars (2022) REMUX 1080p Latino descargar gratis, descargar Unicorn Wars (2022) REMUX 1080p Latino pelicula latino, Unicorn Wars (2022) REMUX 1080p Latino 1 link mega, Unicorn Wars (2022) REMUX 1080p Latino 1 link google drive, Unicorn Wars (2022) REMUX 1080p Latino hd 1080p latino.
Comentarios 0