×

¿Problemas para descargar con Mozilla, EDGE? Deshabilita la opción "Abrir vinculos en una pestaña nueva" tal como lo muestra ésta imagen.

Unicorn Wars (2022) PLACEBO Full HD 1080p Latino

40 vistas

Información de Unicorn Wars (2022) PLACEBO Full HD 1080p Latino

Datos de la película

  • Calidad: Full 1080p
  • Audio: Se especifica abajo de la Sinopsis
  • Subtitulos: No
  • Resolución: 1920x1080p
  • Formato: MKV
  • Codec: H.264
  • Encoder: Melkor
  • Mediainfo: Clic para Mostrar Datos Ver
  • Unicorn Wars (2022) PLACEBO 1080p Latino.mkv
    Format                      : Matroska
    Format version              : Version 4
    File size                   : 3.68 GiB
    Duration                    : 1 h 32 min
    Overall bit rate            : 5 683 kb/s
    Movie name                  : Unicorn Wars (2022) CinemaniaHDD.Net
    Encoded date                : UTC 2024-03-29 19:55:05
    Writing application         : mkvmerge v56.1.0 ('My Friend') 64-bit
    Writing library             : libebml v1.4.2 + libmatroska v1.6.4
    Attachments                 : CINEMANIAHD.png

    Video
    ID                          : 1
    Format                      : AVC
    Format/Info                 : Advanced Video Codec
    Format profile              : High@L4.1
    Format settings             : CABAC / 4 Ref Frames
    Format settings, CABAC      : Yes
    Format settings, Reference  : 4 frames
    Codec ID                    : V_MPEG4/ISO/AVC
    Duration                    : 1 h 32 min
    Bit rate                    : 3 787 kb/s
    Width                       : 1 920 pixels
    Height                      : 1 080 pixels
    Display aspect ratio        : 16:9
    Frame rate mode             : Constant
    Frame rate                  : 24.000 FPS
    Color space                 : YUV
    Chroma subsampling          : 4:2:0
    Bit depth                   : 8 bits
    Scan type                   : Progressive
    Bits/(Pixel*Frame)          : 0.076
    Stream size                 : 2.45 GiB (67%)
    Title                       : Full HD1080p [CinemaniaHDD]
    Writing library             : x264 core 163 r3059 b684ebe0
    Encoding settings           : cabac=1 / ref=4 / deblock=1:0:0 / analyse=0x3:0x133 / me=tesa / subme=11 / psy=1 / psy_rd=1.00:0.00 / mixed_ref=1 / me_range=24 / chroma_me=1 / trellis=2 / 8x8dct=1 / cqm=0 / deadzone=21,11 / fast_pskip=0 / chroma_qp_offset=-2 / threads=24 / lookahead_threads=6 / sliced_threads=0 / nr=0 / decimate=1 / interlaced=0 / bluray_compat=0 / constrained_intra=0 / bframes=16 / b_pyramid=2 / b_adapt=2 / b_bias=0 / direct=3 / weightb=1 / open_gop=0 / weightp=2 / keyint=240 / keyint_min=24 / scenecut=40 / intra_refresh=0 / rc_lookahead=60 / rc=crf / mbtree=1 / crf=19.0 / qcomp=0.60 / qpmin=0 / qpmax=69 / qpstep=4 / vbv_maxrate=62500 / vbv_bufsize=78125 / crf_max=0.0 / nal_hrd=none / filler=0 / ip_ratio=1.40 / aq=1:1.00
    Default                     : Yes
    Forced                      : Yes
    Color range                 : Limited
    Color primaries             : BT.709
    Transfer characteristics    : BT.709
    Matrix coefficients         : BT.709

    Audio #1
    ID                          : 2
    Format                      : AC-3
    Format/Info                 : Audio Coding 3
    Commercial name             : Dolby Digital
    Codec ID                    : A_AC3
    Duration                    : 1 h 32 min
    Bit rate mode               : Constant
    Bit rate                    : 384 kb/s
    Channel(s)                  : 6 channels
    Channel layout              : L R C LFE Ls Rs
    Sampling rate               : 48.0 kHz
    Frame rate                  : 31.250 FPS (1536 SPF)
    Compression mode            : Lossy
    Stream size                 : 255 MiB (7%)
    Title                       : Español Latino [CinemaniaHDD]
    Language                    : Spanish
    Service kind                : Complete Main
    Default                     : No
    Forced                      : Yes

    Audio #2
    ID                          : 3
    Format                      : DTS
    Format/Info                 : Digital Theater Systems
    Codec ID                    : A_DTS
    Duration                    : 1 h 32 min
    Bit rate mode               : Constant
    Bit rate                    : 1 509 kb/s
    Channel(s)                  : 6 channels
    Channel layout              : C L R Ls Rs LFE
    Sampling rate               : 48.0 kHz
    Frame rate                  : 93.750 FPS (512 SPF)
    Bit depth                   : 24 bits
    Compression mode            : Lossy
    Stream size                 : 1 001 MiB (27%)
    Title                       : Castellano [CinemaniaHDD]
    Language                    : Spanish
    Default                     : Yes
    Forced                      : Yes

    Menu
    00:00:00.000                : Chapter 1
    00:04:44.875                : Chapter 2
    00:08:37.375                : Chapter 3
    00:12:07.417                : Chapter 4
    00:16:36.042                : Chapter 5
    00:22:08.417                : Chapter 6
    00:29:13.625                : Chapter 7
    00:36:30.750                : Chapter 8
    00:41:21.083                : Chapter 9
    00:50:02.208                : Chapter 10
    00:54:04.750                : Chapter 11
    01:01:40.292                : Chapter 12
    01:06:28.542                : Chapter 13
    01:10:05.708                : Chapter 14
    01:16:23.208                : Chapter 15
    01:21:14.042                : Chapter 16
    01:27:36.583                : Chapter 17

  • Peso: 3.68 GiB

Sinopsis

Descargar Unicorn Wars (2022) PLACEBO Full HD 1080p Latino. El ejército osito adoctrina a jóvenes reclutas para la guerra que libran contra los unicornios y amenaza la seguridad del pueblo osito. Los hermanos Azulín y Gordi, junto a un inexperto grupo de reclutas, serán enviados a una peligrosa misión para salvar el Bosque Mágico. ¿Estarán los ositos preparados para ello?

Español Latino AC3 5.1 – Español Iberico DTS 5.1

Ficha técnica

Video trailer de la película

Enlaces de descarga

Rip de Bluray

Descargar Unicorn Wars (2022) PLACEBO Full HD 1080p Latino




Aportes de DPeliculasHDmega la pass es:dpeliculashdmega.org Aportes de CinemaniaHD la pass es:cinemaniahdd.com Aportes recientes:cinemaniahdd.net

Películas relacionadas

  • Fear (2023) AMZN WEB-DL 1080p Latino

    Fear (2023) AMZN WEB-DL 1080p Latino

    2023
    Fear (2023) AMZN WEB-DL 1080p Latino

    1h 38m 2023

    Una escapada muy necesaria y un fin de semana de celebración se convierte en una pesadilla debido a...

    Director: Deon Taylor

    Género: Drama

    Actores: Whylip Lee

  • Good Burger 2 (2023) HD 1080p Latino

    Good Burger 2 (2023) HD 1080p Latino

    2023
    Good Burger 2 (2023) HD 1080p Latino

    1h 31m 2023

    Descargar Good Burger 2 (2023) HD 1080p Latino. Después de que su último invento falla, Ed le da la...

    Director: Ross Novie

    Género: Comedia

    Actores: Zoe Saldana

  • Good Burger 2 (2023) PLACEBO Full HD 1080p Latino

    Good Burger 2 (2023) PLACEBO Full HD 1080p Latino

    2023
    Good Burger 2 (2023) PLACEBO Full HD 1080p Latino

    1h 31m 2023

    Descargar Good Burger 2 (2023) PLACEBO Full HD 1080p Latino. Después de que su último invento falla,...

    Director: Ross Novie

    Género: Comedia

    Actores: Zoe Saldana

  • Good Burger 2 (2023) REMUX 1080p Latino

    Good Burger 2 (2023) REMUX 1080p Latino

    2023
    Good Burger 2 (2023) REMUX 1080p Latino

    1h 31m 2023

    Descargar Good Burger 2 (2023) REMUX 1080p Latino. Después de que su último invento falla, Ed le da...

    Director: Ross Novie

    Género: Comedia

    Actores: Zoe Saldana

descargar Unicorn Wars (2022) PLACEBO Full HD 1080p Latino Full 1080p 1080p gratis, Unicorn Wars (2022) PLACEBO Full HD 1080p Latino Full 1080p mega 1 link, Unicorn Wars (2022) PLACEBO Full HD 1080p Latino Full 1080p pelicula completa, descargar Unicorn Wars (2022) PLACEBO Full HD 1080p Latino Full 1080p gratis en mega.

Unicorn Wars (2022) PLACEBO Full HD 1080p Latino pelicula full hd, Unicorn Wars (2022) PLACEBO Full HD 1080p Latino mega latino, Unicorn Wars (2022) PLACEBO Full HD 1080p Latino 4k latino, Unicorn Wars (2022) PLACEBO Full HD 1080p Latino pelicula completa, Unicorn Wars (2022) PLACEBO Full HD 1080p Latino descargar gratis, descargar Unicorn Wars (2022) PLACEBO Full HD 1080p Latino pelicula latino, Unicorn Wars (2022) PLACEBO Full HD 1080p Latino 1 link mega, Unicorn Wars (2022) PLACEBO Full HD 1080p Latino 1 link google drive, Unicorn Wars (2022) PLACEBO Full HD 1080p Latino hd 1080p latino.
Comentarios 0