×

¿Problemas para descargar con Mozilla, EDGE? Deshabilita la opción "Abrir vinculos en una pestaña nueva" tal como lo muestra ésta imagen.

Unforgiven (1992) HD 1080p Latino – CMHDD

444 vistas

Información de Unforgiven (1992) HD 1080p Latino – CMHDD

Datos de la película

  • Calidad: 1080p
  • Audio: Español Latino AC3 2.0 BLURAY - Ingles AC3 5.1 BLURAY
  • Subtitulos: Español Latino SRT- FORZADOS SRT
  • Resolución: 1920x800
  • Formato: MKV
  • Codec: H.264
  • Encoder: Dracarys
  • Mediainfo: Clic para Mostrar Datos Ver
  • Format                      : Matroska
    Format version              : Version 4
    File size                   : 3.96 GiB
    Duration                    : 2 h 10 min
    Overall bit rate            : 4 333 kb/s
    Movie name                  : Unforgiven (1992) HD 1080p Latino - CMHDD
    Encoded date                : UTC 2020-05-13 06:43:43
    Writing application         : mkvmerge v46.0.0 ('No Deeper Escape') 64-bit
    Writing library             : libebml v1.3.10 + libmatroska v1.5.2

    Video
    ID                          : 1
    Format                      : AVC
    Format/Info                 : Advanced Video Codec
    Format profile              : High@L4.1
    Format settings             : CABAC / 5 Ref Frames
    Format settings, CABAC      : Yes
    Format settings, Reference  : 5 frames
    Codec ID                    : V_MPEG4/ISO/AVC
    Duration                    : 2 h 10 min
    Bit rate                    : 3 500 kb/s
    Width                       : 1 920 pixels
    Height                      : 800 pixels
    Display aspect ratio        : 2.40:1
    Frame rate mode             : Constant
    Frame rate                  : 23.976 (24000/1001) FPS
    Color space                 : YUV
    Chroma subsampling          : 4:2:0
    Bit depth                   : 8 bits
    Scan type                   : Progressive
    Bits/(Pixel*Frame)          : 0.095
    Stream size                 : 3.19 GiB (81%)
    Writing library             : x264 core 157 r2935 545de2f
    Encoding settings           : cabac=1 / ref=5 / deblock=1:0:0 / analyse=0x3:0x113 / me=hex / subme=8 / psy=1 / psy_rd=1.00:0.00 / mixed_ref=1 / me_range=16 / chroma_me=1 / trellis=2 / 8x8dct=1 / cqm=0 / deadzone=21,11 / fast_pskip=1 / chroma_qp_offset=-2 / threads=24 / lookahead_threads=4 / sliced_threads=0 / nr=0 / decimate=1 / interlaced=0 / bluray_compat=0 / constrained_intra=0 / bframes=3 / b_pyramid=2 / b_adapt=1 / b_bias=0 / direct=3 / weightb=1 / open_gop=0 / weightp=2 / keyint=240 / keyint_min=24 / scenecut=40 / intra_refresh=0 / rc_lookahead=50 / rc=abr / mbtree=1 / bitrate=3500 / ratetol=1.0 / qcomp=0.60 / qpmin=0 / qpmax=69 / qpstep=4 / vbv_maxrate=62500 / vbv_bufsize=78125 / nal_hrd=none / filler=0 / ip_ratio=1.40 / aq=1:1.00
    Default                     : Yes
    Forced                      : No
    Color range                 : Limited
    Color primaries             : BT.709
    Transfer characteristics    : BT.709
    Matrix coefficients         : BT.709

    Audio #1
    ID                          : 2
    Format                      : AC-3
    Format/Info                 : Audio Coding 3
    Commercial name             : Dolby Digital
    Codec ID                    : A_AC3
    Duration                    : 2 h 10 min
    Bit rate mode               : Constant
    Bit rate                    : 192 kb/s
    Channel(s)                  : 2 channels
    Channel layout              : L R
    Sampling rate               : 48.0 kHz
    Frame rate                  : 31.250 FPS (1536 SPF)
    Compression mode            : Lossy
    Delay relative to video     : 1 s 900 ms
    Stream size                 : 179 MiB (4%)
    Language                    : Spanish
    Service kind                : Complete Main
    Default                     : Yes
    Forced                      : No

    Audio #2
    ID                          : 3
    Format                      : AC-3
    Format/Info                 : Audio Coding 3
    Commercial name             : Dolby Digital
    Codec ID                    : A_AC3
    Duration                    : 2 h 10 min
    Bit rate mode               : Constant
    Bit rate                    : 640 kb/s
    Channel(s)                  : 6 channels
    Channel layout              : L R C LFE Ls Rs
    Sampling rate               : 48.0 kHz
    Frame rate                  : 31.250 FPS (1536 SPF)
    Compression mode            : Lossy
    Stream size                 : 598 MiB (15%)
    Language                    : English
    Service kind                : Complete Main
    Default                     : No
    Forced                      : No

    Text #1
    ID                          : 4
    Format                      : UTF-8
    Codec ID                    : S_TEXT/UTF8
    Codec ID/Info               : UTF-8 Plain Text
    Duration                    : 2 h 9 min
    Bit rate                    : 1 b/s
    Count of elements           : 23
    Stream size                 : 1.06 KiB (0%)
    Title                       : SRT-Forzados
    Language                    : Spanish
    Default                     : Yes
    Forced                      : No

    Text #2
    ID                          : 5
    Format                      : UTF-8
    Codec ID                    : S_TEXT/UTF8
    Codec ID/Info               : UTF-8 Plain Text
    Duration                    : 2 h 10 min
    Bit rate                    : 42 b/s
    Count of elements           : 1407
    Stream size                 : 40.3 KiB (0%)
    Title                       : SRT-Completos
    Default                     : No
    Forced                      : No

    Menu
    00:00:00.000                : :Forward
    00:01:11.863                : :Big Whiskey Disturbance
    00:03:54.359                : :"No Fuss" Fine
    00:07:01.379                : :"We Ain't Horses"
    00:08:17.622                : :Schofield Kid
    00:14:10.808                : :Payment Day
    00:16:54.889                : :Out of Practice
    00:24:18.624                : :Done Stuff for Money
    00:28:52.731                : :Just a Fella Now
    00:31:42.401                : :Majesty f Royalty
    00:34:34.906                : :No Firearm Allowed
    00:38:54.207                : :Welcoming English Bob
    00:46:24.991                : :Not-So-Straight Shooter
    00:53:44.430                : :Duke of Death
    00:58:05.273                : :Killers' Campfire
    01:00:24.955                : :Object Lesson
    01:06:49.214                : :Farewell to Savages
    01:09:36.297                : :Vision of the Dead
    01:13:48.883                : :Big Whiskey Hospitality
    01:20:59.813                : :Angel of Death
    01:24:46.873                : :"We Both Got Scars"
    01:29:39.040                : :Water for a Dying Man
    01:34:27.537                : :Ned's Decision
    01:36:10.974                : :"He Had it Coming"
    01:41:11.232                : :Interrogating Ned
    01:43:13.896                : :Assassins Strike
    01:45:50.469                : :A Hell of a Thing
    01:49:19.428                : :Will's Only Friend
    01:53:14.830                : :On Display
    01:54:34.409                : :Here To Kill You
    01:58:21.720                : :"Deserves Got Nothin' to Do With It"
    02:02:13.117                : :Killer's Threat
    02:04:32.298                : :Epilogue and End Credits

  • Peso: 3.96 GiB

Sinopsis

Magistral western crepuscular que relata la historia de William Munny, un pistolero retirado, viudo y padre de familia, que pasa por dificultades. Hace años que abandonó la violencia, pero ahora su única salida para sacar adelante a su familia es hacer un último trabajo como caza recompensas, acompañado por un viejo socio y un joven e inexperto novato. Su misión: matar a dos hombres que cortaron la cara a una prostituta.

Ficha técnica

Video trailer de la película

Enlaces de descarga

Rip de Bluray

Descargar Unforgiven (1992) HD 1080p Latino – CMHDD




Aportes de DPeliculasHDmega la pass es:dpeliculashdmega.org Aportes de CinemaniaHD la pass es:cinemaniahdd.com
Guardado en : HD 1080p , Western

Películas relacionadas

  • Juego de espías (2001) 1080p Latino

    Juego de espías (2001) 1080p Latino

    2001
    Juego de espías (2001) 1080p Latino

    2h 6m 2001

    Descargar Juego de espías (2001) 1080p Latino. Corre el año 1991, y al veterano agente de la CIA Nathan...

    Director: Tony Scott

    Género: Acción

    Actores: Zsolt Zágoni

  • Asústame (2020) HD 1080p Latino

    Asústame (2020) HD 1080p Latino

    2020
    Asústame (2020) HD 1080p Latino

    1h 44m 2020

    Descargar Asústame (2020) HD 1080p Latino. Durante un corte de energía, dos extraños cuentan historias...

    Director: Josh Ruben

    Género: Comedia

    Actores: Rebecca Drysdale

  • Fuerza bruta (2022) HD 1080p Latino

    Fuerza bruta (2022) HD 1080p Latino

    2022
    Fuerza bruta (2022) HD 1080p Latino

    1h 46m 2022

    Decargar Fuerza bruta (2022) HD 1080p Latino. El «policía bestia» Ma Seok-do se dirige a un país...

    Director: Lee Sang-yong

    Género: Acción

    Actores: Yoon Byung-hee

descargar Unforgiven (1992) HD 1080p Latino – CMHDD 1080p 1080p gratis, Unforgiven (1992) HD 1080p Latino – CMHDD 1080p mega 1 link, Unforgiven (1992) HD 1080p Latino – CMHDD 1080p pelicula completa, descargar Unforgiven (1992) HD 1080p Latino – CMHDD 1080p gratis en mega.

Unforgiven (1992) HD 1080p Latino – CMHDD pelicula full hd, Unforgiven (1992) HD 1080p Latino – CMHDD mega latino, Unforgiven (1992) HD 1080p Latino – CMHDD 4k latino, Unforgiven (1992) HD 1080p Latino – CMHDD pelicula completa, Unforgiven (1992) HD 1080p Latino – CMHDD descargar gratis, descargar Unforgiven (1992) HD 1080p Latino – CMHDD pelicula latino, Unforgiven (1992) HD 1080p Latino – CMHDD 1 link mega, Unforgiven (1992) HD 1080p Latino – CMHDD 1 link google drive, Unforgiven (1992) HD 1080p Latino – CMHDD hd 1080p latino.
Comentarios 0