Unforgiven (1992) 4K HDR Latino – CMHDD

30 vistas
1 estrella2 estrellas3 estrellas4 estrellas5 estrellas (Ninguna valoración todavía)
Cargando…

Información de Unforgiven (1992) 4K HDR Latino – CMHDD

Datos de la película

  • Calidad: 4K HDR
  • Audio: Español Latino AC3 2.0 BLURAY - Ingles DTS 5.1 BLURAY
  • Subtitulos: Español Latino SRT- FORZADOS SRT
  • Resolución: 3840x1600
  • Formato: MKV
  • Codec: HEVC
  • Encoder: Dracarys
  • Mediainfo: Clic para Mostrar Datos Ver
  • Format                      : Matroska
    Format version              : Version 4
    File size                   : 22.9 GiB
    Duration                    : 2 h 10 min
    Overall bit rate mode       : Variable
    Overall bit rate            : 25.1 Mb/s
    Movie name                  : Unforgiven (1992) 4K HDR Latino - CMHDD
    Encoded date                : UTC 2020-05-12 02:59:06
    Writing application         : mkvmerge v46.0.0 ('No Deeper Escape') 64-bit
    Writing library             : libebml v1.3.10 + libmatroska v1.5.2

    Video
    ID                          : 1
    Format                      : HEVC
    Format/Info                 : High Efficiency Video Coding
    Format profile              : Main 10@L5.1@High
    HDR format                  : SMPTE ST 2086, HDR10 compatible
    Codec ID                    : V_MPEGH/ISO/HEVC
    Duration                    : 2 h 10 min
    Bit rate                    : 20.5 Mb/s
    Width                       : 3 840 pixels
    Height                      : 1 600 pixels
    Display aspect ratio        : 2.40:1
    Frame rate mode             : Constant
    Frame rate                  : 23.976 (24000/1001) FPS
    Color space                 : YUV
    Chroma subsampling          : 4:2:0 (Type 2)
    Bit depth                   : 10 bits
    Bits/(Pixel*Frame)          : 0.139
    Stream size                 : 18.7 GiB (82%)
    Writing library             : x265 2.5+58-06979c042350:[Windows][GCC 6.2.1][64 bit] 10bit
    Encoding settings           : cpuid=1173503 / frame-threads=4 / numa-pools=16 / wpp / no-pmode / no-pme / no-psnr / no-ssim / log-level=2 / input-csp=1 / input-res=3840x1600 / interlace=0 / total-frames=187962 / level-idc=51 / high-tier=1 / uhd-bd=0 / ref=4 / no-allow-non-conformance / repeat-headers / annexb / aud / hrd / info / hash=0 / no-temporal-layers / no-open-gop / min-keyint=1 / keyint=24 / bframes=4 / b-adapt=2 / b-pyramid / bframe-bias=0 / rc-lookahead=25 / lookahead-slices=4 / scenecut=40 / no-intra-refresh / ctu=64 / min-cu-size=8 / rect / no-amp / max-tu-size=32 / tu-inter-depth=1 / tu-intra-depth=1 / limit-tu=0 / rdoq-level=2 / dynamic-rd=0.00 / no-ssim-rd / signhide / no-tskip / nr-intra=0 / nr-inter=0 / no-constrained-intra / no-strong-intra-smoothing / max-merge=3 / limit-refs=3 / limit-modes / me=3 / subme=3 / merange=57 / temporal-mvp / weightp / no-weightb / no-analyze-src-pics / deblock=-3:-3 / no-sao / no-sao-non-deblock / rd=4 / no-early-skip / rskip / no-fast-intra / no-tskip-fast / no-cu-lossless / no-b-intra / no-splitrd-skip / rdpenalty=0 / psy-rd=2.00 / psy-rdoq=1.00 / no-rd-refine / analysis-reuse-mode=0 / no-lossless / cbqpoffs=0 / crqpoffs=0 / rc=crf / crf=17.0 / qcomp=0.60 / qpstep=4 / stats-write=0 / stats-read=0 / vbv-maxrate=160000 / vbv-bufsize=160000 / vbv-init=0.9 / crf-max=0.0 / crf-min=0.0 / ipratio=1.40 / pbratio=1.30 / aq-mode=1 / aq-strength=1.00 / cutree / zone-count=0 / no-strict-cbr / qg-size=32 / no-rc-grain / qpmax=69 / qpmin=0 / no-const-vbv / sar=1 / overscan=0 / videoformat=5 / range=0 / colorprim=9 / transfer=16 / colormatrix=9 / chromaloc=1 / chromaloc-top=2 / chromaloc-bottom=2 / display-window=0 / master-display=G(13250,34500)B(7500,3000)R(34000,16000)WP(15635,16450)L(40000000,50) / max-cll=500,200 / min-luma=0 / max-luma=1023 / log2-max-poc-lsb=8 / vui-timing-info / vui-hrd-info / slices=1 / no-opt-qp-pps / no-opt-ref-list-length-pps / no-multi-pass-opt-rps / scenecut-bias=0.05 / no-opt-cu-delta-qp / no-aq-motion / hdr / hdr-opt / no-dhdr10-opt / analysis-reuse-level=5 / scale-factor=0 / refine-intra=0 / refine-inter=0 / refine-mv=0 / no-limit-sao / ctu-info=0 / no-lowpass-dct / refine-mv-type=0 / copy-pic=1
    Default                     : Yes
    Forced                      : No
    Color range                 : Limited
    Color primaries             : BT.2020
    Transfer characteristics    : PQ
    Matrix coefficients         : BT.2020 non-constant
    Mastering display color pri : Display P3
    Mastering display luminance : min: 0.0050 cd/m2, max: 4000 cd/m2
    Maximum Content Light Level : 500 cd/m2
    Maximum Frame-Average Light : 200 cd/m2

    Audio #1
    ID                          : 2
    Format                      : AC-3
    Format/Info                 : Audio Coding 3
    Commercial name             : Dolby Digital
    Codec ID                    : A_AC3
    Duration                    : 2 h 10 min
    Bit rate mode               : Constant
    Bit rate                    : 192 kb/s
    Channel(s)                  : 2 channels
    Channel layout              : L R
    Sampling rate               : 48.0 kHz
    Frame rate                  : 31.250 FPS (1536 SPF)
    Compression mode            : Lossy
    Stream size                 : 179 MiB (1%)
    Language                    : Spanish
    Service kind                : Complete Main
    Default                     : Yes
    Forced                      : No

    Audio #2
    ID                          : 3
    Format                      : DTS XLL
    Format/Info                 : Digital Theater Systems
    Commercial name             : DTS-HD Master Audio
    Codec ID                    : A_DTS
    Duration                    : 2 h 10 min
    Bit rate mode               : Variable
    Bit rate                    : 4 394 kb/s
    Channel(s)                  : 6 channels
    Channel layout              : C L R Ls Rs LFE
    Sampling rate               : 48.0 kHz
    Frame rate                  : 93.750 FPS (512 SPF)
    Bit depth                   : 24 bits
    Compression mode            : Lossless
    Stream size                 : 4.01 GiB (17%)
    Language                    : English
    Default                     : No
    Forced                      : No

    Text #1
    ID                          : 4
    Format                      : UTF-8
    Codec ID                    : S_TEXT/UTF8
    Codec ID/Info               : UTF-8 Plain Text
    Duration                    : 2 h 9 min
    Bit rate                    : 1 b/s
    Count of elements           : 23
    Stream size                 : 1.06 KiB (0%)
    Title                       : SRT-Forzados
    Language                    : Spanish
    Default                     : Yes
    Forced                      : No

    Text #2
    ID                          : 5
    Format                      : UTF-8
    Codec ID                    : S_TEXT/UTF8
    Codec ID/Info               : UTF-8 Plain Text
    Duration                    : 2 h 10 min
    Bit rate                    : 42 b/s
    Count of elements           : 1407
    Stream size                 : 40.3 KiB (0%)
    Title                       : SRT-Completos
    Language                    : Spanish
    Default                     : No
    Forced                      : No

    Text #3
    ID                          : 6
    Format                      : PGS
    Muxing mode                 : zlib
    Codec ID                    : S_HDMV/PGS
    Codec ID/Info               : Picture based subtitle format used on BDs/HD-DVDs
    Duration                    : 2 h 10 min
    Bit rate                    : 24.3 kb/s
    Count of elements           : 2814
    Stream size                 : 22.6 MiB (0%)
    Title                       : PGS-Completos
    Language                    : Spanish
    Default                     : No
    Forced                      : No

    Text #4
    ID                          : 7
    Format                      : PGS
    Muxing mode                 : zlib
    Codec ID                    : S_HDMV/PGS
    Codec ID/Info               : Picture based subtitle format used on BDs/HD-DVDs
    Duration                    : 2 h 10 min
    Bit rate                    : 644 b/s
    Count of elements           : 48
    Stream size                 : 614 KiB (0%)
    Title                       : PGS-Forzados
    Language                    : Spanish
    Default                     : No
    Forced                      : No

    Menu
    00:00:00.000                : en:00:00:00.000
    00:01:09.861                : en:00:01:09.861
    00:03:52.232                : en:00:03:52.232
    00:06:59.044                : en:00:06:59.044
    00:08:15.537                : en:00:08:15.537
    00:14:08.598                : en:00:14:08.598
    00:16:52.678                : en:00:16:52.678
    00:24:16.497                : en:00:24:16.497
    00:28:50.395                : en:00:28:50.395
    00:31:40.023                : en:00:31:40.023
    00:34:32.862                : en:00:34:32.862
    00:38:51.955                : en:00:38:51.955
    00:46:22.530                : en:00:46:22.530
    00:53:42.344                : en:00:53:42.344
    00:58:03.021                : en:00:58:03.021
    01:00:22.702                : en:01:00:22.702
    01:06:46.753                : en:01:06:46.753
    01:09:34.087                : en:01:09:34.087
    01:13:46.672                : en:01:13:46.672
    01:20:57.603                : en:01:20:57.603
    01:24:44.621                : en:01:24:44.621
    01:29:36.663                : en:01:29:36.663
    01:34:25.076                : en:01:34:25.076
    01:36:08.888                : en:01:36:08.888
    01:41:08.896                : en:01:41:08.896
    01:43:11.685                : en:01:43:11.685
    01:45:48.217                : en:01:45:48.217
    01:49:17.092                : en:01:49:17.092
    01:53:12.327                : en:01:53:12.327
    01:54:32.074                : en:01:54:32.074
    01:58:19.342                : en:01:58:19.342
    02:02:10.657                : en:02:02:10.657
    02:04:30.046                : en:02:04:30.046

  • Peso: 22.9 GiB

Sinopsis

Magistral western crepuscular que relata la historia de William Munny, un pistolero retirado, viudo y padre de familia, que pasa por dificultades. Hace años que abandonó la violencia, pero ahora su única salida para sacar adelante a su familia es hacer un último trabajo como caza recompensas, acompañado por un viejo socio y un joven e inexperto novato. Su misión: matar a dos hombres que cortaron la cara a una prostituta.

Ficha técnica

Video trailer de la película

Enlaces de descarga

Rip de Bluray

Descargar Unforgiven (1992) 4K HDR Latino – CMHDD




Aportes de DPeliculasHDmega la pass es:dpeliculashdmega.org Aportes de CinemaniaHD la pass es:cinemaniahdd.com
Guardado en : 4K HDR , 4K UHD , Western

Películas relacionadas

  • Onward: Unidos (2020) 4K UHD HDR 1080p Latino

    Onward: Unidos (2020) 4K UHD HDR 1080p Latino

    2020
    Onward: Unidos (2020) 4K UHD HDR 1080p Latino

    0.0 1h 42m 2020

    Descargar Onward: Unidos (2020) 4K UHD HDR 1080p Latino. Ambientado en un mundo de fantasía suburbana,...

    Director: Dan Scanlon

    Género: 4K HDR

    Actores: Wilmer Valderrama

  • Sonic: la película (2020) 4K UHD HDR Latino

    Sonic: la película (2020) 4K UHD HDR Latino

    2020
    Sonic: la película (2020) 4K UHD HDR Latino

    0.0 1h 39m 2020

    Descargar Sonic: la película (2020) 4K UHD HDR Latino. Sonic, el descarado erizo azul basado en la famosa...

    Director: Jeff Fowler

    Género: 4K HDR

    Actores: Tom Butler

  • Unforgiven (1992) HD 1080p Latino – CMHDD

    Unforgiven (1992) HD 1080p Latino – CMHDD

    1992
    Unforgiven (1992) HD 1080p Latino – CMHDD

    0.0 2h 11m 1992

    Magistral western crepuscular que relata la historia de William Munny, un pistolero retirado, viudo y...

    Director: Tom Rooker

    Género: HD 1080p

    Actores: Walter Marsh

Comentarios 0