×

¿Problemas para descargar con Mozilla, EDGE? Deshabilita la opción "Abrir vinculos en una pestaña nueva" tal como lo muestra ésta imagen.

Undone (2019) Temporada 1 AMZN WEB-DL 1080p Latino

1.499 vistas

Información de Undone (2019) Temporada 1 AMZN WEB-DL 1080p Latino

Datos de la película

  • Calidad: WEBDL
  • Audio: Español Latino E-AC3 5.1 AMAZON - Ingles E-AC3 5.1 AMAZON
  • Subtitulos: Español Latino SRT- FORZADOS SRT
  • Resolución: 1920x1080
  • Formato: MKV
  • Codec: H.264
  • Encoder: cinemaniahdd
  • Mediainfo: Clic para Mostrar Datos Ver
  • Undone S01E02 AMZN WEB-DL 1080p Latino.mkv
    Format                      : Matroska
    Format version              : Version 4
    File size                   : 1.56 GiB
    Duration                    : 23 min 28 s
    Overall bit rate            : 9 529 kb/s
    Movie name                  : Undone S01E02 - CinemaniaHDD.Net
    Encoded date                : UTC 2019-09-17 19:39:08
    Writing application         : mkvmerge v35.0.0 ('All The Love In The World') 64-bit
    Writing library             : libebml v1.3.9 + libmatroska v1.5.2

    Video
    ID                          : 1
    Format                      : AVC
    Format/Info                 : Advanced Video Codec
    Format profile              : High@L4
    Format settings             : CABAC / 4 Ref Frames
    Format settings, CABAC      : Yes
    Format settings, ReFrames   : 4 frames
    Codec ID                    : V_MPEG4/ISO/AVC
    Duration                    : 23 min 27 s
    Bit rate mode               : Constant
    Bit rate                    : 8 247 kb/s
    Nominal bit rate            : 10 000 kb/s
    Width                       : 1 920 pixels
    Height                      : 1 080 pixels
    Display aspect ratio        : 16:9
    Frame rate mode             : Constant
    Frame rate                  : 23.976 (24000/1001) FPS
    Color space                 : YUV
    Chroma subsampling          : 4:2:0
    Bit depth                   : 8 bits
    Scan type                   : Progressive
    Bits/(Pixel*Frame)          : 0.166
    Stream size                 : 1.35 GiB (87%)
    Title                       : CinemaniaHDD
    Default                     : Yes
    Forced                      : No
    Color range                 : Limited
    Color primaries             : BT.709
    Transfer characteristics    : BT.709
    Matrix coefficients         : BT.709

    Audio #1
    ID                          : 2
    Format                      : E-AC-3
    Format/Info                 : Enhanced AC-3
    Commercial name             : Dolby Digital Plus
    Codec ID                    : A_EAC3
    Duration                    : 23 min 28 s
    Bit rate mode               : Constant
    Bit rate                    : 640 kb/s
    Channel(s)                  : 6 channels
    Channel layout              : L R C LFE Ls Rs
    Sampling rate               : 48.0 kHz
    Frame rate                  : 31.250 FPS (1536 SPF)
    Compression mode            : Lossy
    Stream size                 : 107 MiB (7%)
    Title                       : Español latino [CinemaniaHDD]
    Language                    : Spanish
    Service kind                : Complete Main
    Default                     : Yes
    Forced                      : No

    Audio #2
    ID                          : 3
    Format                      : E-AC-3
    Format/Info                 : Enhanced AC-3
    Commercial name             : Dolby Digital Plus
    Codec ID                    : A_EAC3
    Duration                    : 23 min 28 s
    Bit rate mode               : Constant
    Bit rate                    : 640 kb/s
    Channel(s)                  : 6 channels
    Channel layout              : L R C LFE Ls Rs
    Sampling rate               : 48.0 kHz
    Frame rate                  : 31.250 FPS (1536 SPF)
    Compression mode            : Lossy
    Stream size                 : 107 MiB (7%)
    Title                       : Inglés [CinemaniaHDD]
    Language                    : English
    Service kind                : Complete Main
    Default                     : No
    Forced                      : No

    Text #1
    ID                          : 4
    Format                      : UTF-8
    Codec ID                    : S_TEXT/UTF8
    Codec ID/Info               : UTF-8 Plain Text
    Duration                    : 18 min 43 s
    Bit rate                    : 0 b/s
    Count of elements           : 2
    Stream size                 : 48.0 Bytes (0%)
    Title                       : Forzados [CinemaniaHDD]
    Language                    : Spanish
    Default                     : Yes
    Forced                      : Yes

    Text #2
    ID                          : 5
    Format                      : UTF-8
    Codec ID                    : S_TEXT/UTF8
    Codec ID/Info               : UTF-8 Plain Text
    Duration                    : 21 min 52 s
    Bit rate                    : 73 b/s
    Count of elements           : 375
    Stream size                 : 11.8 KiB (0%)
    Title                       : Español latino [CinemaniaHDD]
    Language                    : Spanish
    Default                     : No
    Forced                      : No

    Menu
    00:00:00.000                : en:Amazon Original
    00:00:05.000                : en:The scene of the accident
    00:00:23.000                : en:Title Sequence
    00:00:28.000                : en:Flashes of reality in the hospital
    00:08:12.000                : en:Stuck in a time loop
    00:15:36.000                : en:Jacob needs his daughter's help
    00:19:23.000                : en:A life that doesn't follow a timeline
    00:22:14.000                : en:End Credits

     

  • Peso: 1.56 GiB c/u

Sinopsis

Alma, tras sufrir un accidente casi fatal, descubre que ha adquirido el poder de transitar libremente a través del espacio y el tiempo, y usará este talento para averiguar la verdad sobre la muerte de su padre.

Ficha técnica

Video trailer de la película

Enlaces de descarga

Rip de Bluray

Descargar Undone (2019) Temporada 1 AMZN WEB-DL 1080p Latino




Aportes de DPeliculasHDmega la pass es:dpeliculashdmega.org Aportes de CinemaniaHD la pass es:cinemaniahdd.com
Guardado en : Animación , Drama , Sci-Fi & Fantasy

Películas relacionadas

descargar Undone (2019) Temporada 1 AMZN WEB-DL 1080p Latino WEBDL 1080p gratis, Undone (2019) Temporada 1 AMZN WEB-DL 1080p Latino WEBDL mega 1 link, Undone (2019) Temporada 1 AMZN WEB-DL 1080p Latino WEBDL pelicula completa, descargar Undone (2019) Temporada 1 AMZN WEB-DL 1080p Latino WEBDL gratis en mega.

Undone (2019) Temporada 1 AMZN WEB-DL 1080p Latino pelicula full hd, Undone (2019) Temporada 1 AMZN WEB-DL 1080p Latino mega latino, Undone (2019) Temporada 1 AMZN WEB-DL 1080p Latino 4k latino, Undone (2019) Temporada 1 AMZN WEB-DL 1080p Latino pelicula completa, Undone (2019) Temporada 1 AMZN WEB-DL 1080p Latino descargar gratis, descargar Undone (2019) Temporada 1 AMZN WEB-DL 1080p Latino pelicula latino, Undone (2019) Temporada 1 AMZN WEB-DL 1080p Latino 1 link mega, Undone (2019) Temporada 1 AMZN WEB-DL 1080p Latino 1 link google drive, Undone (2019) Temporada 1 AMZN WEB-DL 1080p Latino hd 1080p latino.
Comentarios 0