×

¿Problemas para descargar con Mozilla, EDGE? Deshabilita la opción "Abrir vinculos en una pestaña nueva" tal como lo muestra ésta imagen.

Undisputed 3 (2010) REMUX 1080p Latino – CMHDD

402 vistas

Información de Undisputed 3 (2010) REMUX 1080p Latino – CMHDD

Datos de la película

  • Calidad: Full 1080p
  • Audio: Español Latino AC3 2.0 DVD - Ingles DTS 5.1 BLURAY
  • Subtitulos: Español Latino SRT
  • Resolución: 1920x1080p
  • Formato: MKV
  • Codec: H.264
  • Encoder: Dracarys
  • Mediainfo: Clic para Mostrar Datos Ver
  • Format                      : Matroska
    Format version              : Version 4
    File size                   : 18.5 GiB
    Duration                    : 1 h 36 min
    Overall bit rate mode       : Variable
    Overall bit rate            : 27.6 Mb/s
    Movie name                  : Undisputed 3 (2010) REMUX 1080p Latino - CMHDD
    Encoded date                : UTC 2021-04-05 03:14:10
    Writing application         : mkvmerge v51.0.0 ('I Wish') 64-bit
    Writing library             : libebml v1.4.0 + libmatroska v1.6.2

    Video
    ID                          : 1
    Format                      : VC-1
    Format profile              : Advanced@L3
    Codec ID                    : V_MS/VFW/FOURCC / WVC1
    Codec ID/Hint               : Microsoft
    Duration                    : 1 h 36 min
    Bit rate                    : 23.2 Mb/s
    Width                       : 1 920 pixels
    Height                      : 1 080 pixels
    Display aspect ratio        : 16:9
    Frame rate mode             : Constant
    Frame rate                  : 23.976 (24000/1001) FPS
    Color space                 : YUV
    Chroma subsampling          : 4:2:0
    Bit depth                   : 8 bits
    Scan type                   : Progressive
    Compression mode            : Lossy
    Bits/(Pixel*Frame)          : 0.466
    Stream size                 : 15.5 GiB (84%)
    Language                    : English
    Default                     : Yes
    Forced                      : No

    Audio #1
    ID                          : 2
    Format                      : AC-3
    Format/Info                 : Audio Coding 3
    Commercial name             : Dolby Digital
    Codec ID                    : A_AC3
    Duration                    : 1 h 35 min
    Bit rate mode               : Constant
    Bit rate                    : 192 kb/s
    Channel(s)                  : 2 channels
    Channel layout              : L R
    Sampling rate               : 48.0 kHz
    Frame rate                  : 31.250 FPS (1536 SPF)
    Compression mode            : Lossy
    Stream size                 : 132 MiB (1%)
    Language                    : Spanish
    Service kind                : Complete Main
    Default                     : Yes
    Forced                      : No

    Audio #2
    ID                          : 3
    Format                      : DTS XLL
    Format/Info                 : Digital Theater Systems
    Commercial name             : DTS-HD Master Audio
    Codec ID                    : A_DTS
    Duration                    : 1 h 36 min
    Bit rate mode               : Variable
    Bit rate                    : 4 222 kb/s
    Channel(s)                  : 6 channels
    Channel layout              : C L R Ls Rs LFE
    Sampling rate               : 48.0 kHz
    Frame rate                  : 93.750 FPS (512 SPF)
    Bit depth                   : 24 bits
    Compression mode            : Lossless
    Stream size                 : 2.83 GiB (15%)
    Language                    : English
    Default                     : No
    Forced                      : No

    Text
    ID                          : 4
    Format                      : UTF-8
    Codec ID                    : S_TEXT/UTF8
    Codec ID/Info               : UTF-8 Plain Text
    Duration                    : 1 h 32 min
    Bit rate                    : 32 b/s
    Count of elements           : 815
    Stream size                 : 22.1 KiB (0%)
    Language                    : Spanish
    Default                     : No
    Forced                      : No

    Menu
    00:00:00.000                : en:00:00:00.000
    00:11:31.232                : en:00:11:31.232
    00:19:26.457                : en:00:19:26.457
    00:28:14.276                : en:00:28:14.276
    00:40:06.696                : en:00:40:06.696
    00:49:29.341                : en:00:49:29.341
    01:01:16.464                : en:01:01:16.464
    01:12:28.844                : en:01:12:28.844
    01:25:33.337                : en:01:25:33.337
    01:32:27.083                : en:01:32:27.083

  • Peso: 18.5 GiB

Sinopsis

En esta película Scott Adkins vuelve a encarnar a Boyka (el malo de Undisputed 2), que busca la libertad. Cuando se le ofrece la oportunidad de participar en un campeonato clandestino entre los 8 mejores luchadores reclusos del mundo, ni lo dudará.

Ficha técnica

  • Titulo original: Undisputed III: Redemption
  • Fecha de lanzamiento: 22-05-2010 (United States of America)
  • Director: Isaac Florentine
  • Género: Acción, Suspenso

Video trailer de la película

Enlaces de descarga

Rip de Bluray

Descargar Undisputed 3 (2010) REMUX 1080p Latino – CMHDD


Aportes de DPeliculasHDmega la pass es:dpeliculashdmega.org Aportes de CinemaniaHD la pass es:cinemaniahdd.com
Guardado en : Acción , Suspenso

Películas relacionadas

  • Paradise Highway (2022) HD 1080p Latino

    Paradise Highway (2022) HD 1080p Latino

    2022
    Paradise Highway (2022) HD 1080p Latino

    1h 55m 2022

    Descargar Paradise Highway (2022) HD 1080p Latino. Un camionero se ha visto obligado a pasar de contrabando...

    Director: Anna Gutto

    Género: Crimen

    Actores: Xavier Scott Evans

  • Paradise Highway (2022) PLACEBO Full HD 1080p Latino

    Paradise Highway (2022) PLACEBO Full HD 1080p Latino

    2022
    Paradise Highway (2022) PLACEBO Full HD 1080p Latino

    1h 55m 2022

    Descargar Paradise Highway (2022) PLACEBO Full HD 1080p Latino. Un camionero se ha visto obligado a pasar...

    Director: Anna Gutto

    Género: Crimen

    Actores: Xavier Scott Evans

  • Paradise Highway (2022) REMUX 1080p Latino

    Paradise Highway (2022) REMUX 1080p Latino

    2022
    Paradise Highway (2022) REMUX 1080p Latino

    1h 55m 2022

    Descargar Paradise Highway (2022) REMUX 1080p Latino. Un camionero se ha visto obligado a pasar de contrabando...

    Director: Anna Gutto

    Género: Crimen

    Actores: Xavier Scott Evans

  • Shotgun Wedding (2022) AMZN WEB-DL 1080p Latino

    Shotgun Wedding (2022) AMZN WEB-DL 1080p Latino

    2022
    Shotgun Wedding (2022) AMZN WEB-DL 1080p Latino

    1h 41m 2022

    Darcy y Tom reúnen a sus familias para la boda de destino definitiva, pero cuando toman como rehenes...

    Director: Jason Moore

    Género: Acción

    Actores: Steve Coulter

descargar Undisputed 3 (2010) REMUX 1080p Latino – CMHDD Full 1080p 1080p gratis, Undisputed 3 (2010) REMUX 1080p Latino – CMHDD Full 1080p mega 1 link, Undisputed 3 (2010) REMUX 1080p Latino – CMHDD Full 1080p pelicula completa, descargar Undisputed 3 (2010) REMUX 1080p Latino – CMHDD Full 1080p gratis en mega.

Undisputed 3 (2010) REMUX 1080p Latino – CMHDD pelicula full hd, Undisputed 3 (2010) REMUX 1080p Latino – CMHDD mega latino, Undisputed 3 (2010) REMUX 1080p Latino – CMHDD 4k latino, Undisputed 3 (2010) REMUX 1080p Latino – CMHDD pelicula completa, Undisputed 3 (2010) REMUX 1080p Latino – CMHDD descargar gratis, descargar Undisputed 3 (2010) REMUX 1080p Latino – CMHDD pelicula latino, Undisputed 3 (2010) REMUX 1080p Latino – CMHDD 1 link mega, Undisputed 3 (2010) REMUX 1080p Latino – CMHDD 1 link google drive, Undisputed 3 (2010) REMUX 1080p Latino – CMHDD hd 1080p latino.
Comentarios 0