×

¿Problemas para descargar con Mozilla, EDGE? Deshabilita la opción "Abrir vinculos en una pestaña nueva" tal como lo muestra ésta imagen.

Undisputed (2002) Full HD 1080p Latino – CMHDD

501 vistas

Información de Undisputed (2002) Full HD 1080p Latino – CMHDD

Datos de la película

  • Calidad: Full 1080p
  • Audio: Español Latino AC3 2.0 DVD - Ingles DTS 5.1 BLURAY
  • Subtitulos: Español Latino SRT
  • Resolución: 1920x1080p
  • Formato: MKV
  • Codec: H.264
  • Encoder: Dracarys
  • Mediainfo: Clic para Mostrar Datos Ver
  • Format                      : Matroska
    Format version              : Version 4
    File size                   : 10.8 GiB
    Duration                    : 1 h 33 min
    Overall bit rate mode       : Variable
    Overall bit rate            : 16.5 Mb/s
    Movie name                  : Undisputed (2002) Full HD 1080p Latino - CMHDD
    Encoded date                : UTC 2021-04-05 02:38:24
    Writing application         : mkvmerge v51.0.0 ('I Wish') 64-bit
    Writing library             : libebml v1.4.0 + libmatroska v1.6.2

    Video
    ID                          : 1
    Format                      : AVC
    Format/Info                 : Advanced Video Codec
    Format profile              : High@L4.1
    Format settings             : CABAC / 4 Ref Frames
    Format settings, CABAC      : Yes
    Format settings, Reference  : 4 frames
    Codec ID                    : V_MPEG4/ISO/AVC
    Duration                    : 1 h 33 min
    Bit rate                    : 14.0 Mb/s
    Width                       : 1 920 pixels
    Height                      : 1 080 pixels
    Display aspect ratio        : 16:9
    Frame rate mode             : Constant
    Frame rate                  : 23.976 (24000/1001) FPS
    Color space                 : YUV
    Chroma subsampling          : 4:2:0
    Bit depth                   : 8 bits
    Scan type                   : Progressive
    Bits/(Pixel*Frame)          : 0.282
    Stream size                 : 9.18 GiB (85%)
    Writing library             : x264 core 157 r2935 545de2f
    Encoding settings           : cabac=1 / ref=4 / deblock=1:0:0 / analyse=0x3:0x133 / me=tesa / subme=11 / psy=1 / psy_rd=1.00:0.00 / mixed_ref=1 / me_range=24 / chroma_me=1 / trellis=2 / 8x8dct=1 / cqm=0 / deadzone=21,11 / fast_pskip=0 / chroma_qp_offset=-2 / threads=24 / lookahead_threads=6 / sliced_threads=0 / nr=0 / decimate=1 / interlaced=0 / bluray_compat=0 / constrained_intra=0 / bframes=16 / b_pyramid=2 / b_adapt=2 / b_bias=0 / direct=3 / weightb=1 / open_gop=0 / weightp=2 / keyint=240 / keyint_min=24 / scenecut=40 / intra_refresh=0 / rc_lookahead=60 / rc=crf / mbtree=1 / crf=20.0 / qcomp=0.60 / qpmin=0 / qpmax=69 / qpstep=4 / vbv_maxrate=62500 / vbv_bufsize=78125 / crf_max=0.0 / nal_hrd=none / filler=0 / ip_ratio=1.40 / aq=1:1.00
    Default                     : Yes
    Forced                      : No
    Color range                 : Limited
    Color primaries             : BT.709
    Transfer characteristics    : BT.709
    Matrix coefficients         : BT.709

    Audio #1
    ID                          : 2
    Format                      : AC-3
    Format/Info                 : Audio Coding 3
    Commercial name             : Dolby Digital
    Codec ID                    : A_AC3
    Duration                    : 1 h 33 min
    Bit rate mode               : Constant
    Bit rate                    : 192 kb/s
    Channel(s)                  : 2 channels
    Channel layout              : L R
    Sampling rate               : 48.0 kHz
    Frame rate                  : 31.250 FPS (1536 SPF)
    Compression mode            : Lossy
    Stream size                 : 129 MiB (1%)
    Language                    : Spanish
    Service kind                : Complete Main
    Default                     : Yes
    Forced                      : No

    Audio #2
    ID                          : 3
    Format                      : DTS XLL
    Format/Info                 : Digital Theater Systems
    Commercial name             : DTS-HD Master Audio
    Codec ID                    : A_DTS
    Duration                    : 1 h 33 min
    Bit rate mode               : Variable
    Bit rate                    : 2 228 kb/s
    Channel(s)                  : 6 channels
    Channel layout              : C L R Ls Rs LFE
    Sampling rate               : 48.0 kHz
    Frame rate                  : 93.750 FPS (512 SPF)
    Bit depth                   : 16 bits
    Compression mode            : Lossless
    Stream size                 : 1.46 GiB (14%)
    Language                    : English
    Default                     : No
    Forced                      : No

    Text
    ID                          : 4
    Format                      : UTF-8
    Codec ID                    : S_TEXT/UTF8
    Codec ID/Info               : UTF-8 Plain Text
    Duration                    : 1 h 22 min
    Bit rate                    : 68 b/s
    Count of elements           : 1212
    Stream size                 : 41.3 KiB (0%)
    Language                    : Spanish
    Default                     : No
    Forced                      : No

    Menu
    00:00:00.000                : :00:00:00.000
    00:07:59.688                : :00:07:59.688
    00:16:05.548                : :00:16:05.548
    00:23:59.813                : :00:23:59.813
    00:31:41.608                : :00:31:41.608
    00:38:46.491                : :00:38:46.491
    00:46:55.896                : :00:46:55.896
    00:54:42.863                : :00:54:42.863
    01:02:23.865                : :01:02:23.865
    01:10:53.207                : :01:10:53.082
    01:17:12.002                : :01:17:12.002
    01:26:25.972                : :01:26:25.931

  • Peso: 10.8 GiB

Sinopsis

El campeón mundial de boxeo en la categoría de pesos pesados George “Iceman” Chambers (Ving Rhames) es enviado a prisión acusado de violación, cargo del que él se declara totalmente inocente. Lo que más le indigna es que en la cima de su carrera de boxeador profesional no va a poder disfrutar y defender su título de campeón invicto. Cumpliendo cadena perpetua por un crimen pasional en la misma penitenciaría a la que será enviado Iceman se encuentra Monroe Hutchen (Wesley Snipes). Los reclusos consideran a Hutchen como a un héroe, como a su indiscutible campeón de boxeo. Resignado a pasar el resto de su vida en la cárcel, a Hutchen todavía le obsesiona, sin embargo, la duda de si hubiera podido llegar a ser alguien como boxeador.

Ficha técnica

Video trailer de la película

Enlaces de descarga

Rip de Bluray

Descargar Undisputed (2002) Full HD 1080p Latino – CMHDD




Aportes de DPeliculasHDmega la pass es:dpeliculashdmega.org Aportes de CinemaniaHD la pass es:cinemaniahdd.com Aportes recientes:cinemaniahdd.net
Guardado en : Acción , Aventura , Drama , Suspenso

Películas relacionadas

descargar Undisputed (2002) Full HD 1080p Latino – CMHDD Full 1080p 1080p gratis, Undisputed (2002) Full HD 1080p Latino – CMHDD Full 1080p mega 1 link, Undisputed (2002) Full HD 1080p Latino – CMHDD Full 1080p pelicula completa, descargar Undisputed (2002) Full HD 1080p Latino – CMHDD Full 1080p gratis en mega.

Undisputed (2002) Full HD 1080p Latino – CMHDD pelicula full hd, Undisputed (2002) Full HD 1080p Latino – CMHDD mega latino, Undisputed (2002) Full HD 1080p Latino – CMHDD 4k latino, Undisputed (2002) Full HD 1080p Latino – CMHDD pelicula completa, Undisputed (2002) Full HD 1080p Latino – CMHDD descargar gratis, descargar Undisputed (2002) Full HD 1080p Latino – CMHDD pelicula latino, Undisputed (2002) Full HD 1080p Latino – CMHDD 1 link mega, Undisputed (2002) Full HD 1080p Latino – CMHDD 1 link google drive, Undisputed (2002) Full HD 1080p Latino – CMHDD hd 1080p latino.
Comentarios 0