×

¿Problemas para descargar con Mozilla, EDGE? Deshabilita la opción "Abrir vinculos en una pestaña nueva" tal como lo muestra ésta imagen.

Undisputed 2 (2006) Full HD 1080p Latino – CMHDD

270 vistas

Información de Undisputed 2 (2006) Full HD 1080p Latino – CMHDD

Datos de la película

  • Calidad: Full 1080p
  • Audio: Español Latino AC3 2.0 DVD - Ingles DTS 5.1 BLURAY
  • Subtitulos: Español Latino SRT
  • Resolución: 1920x1080p
  • Formato: MKV
  • Codec: H.264
  • Encoder: Dracarys
  • Mediainfo: Clic para Mostrar Datos Ver
  • Format                      : Matroska
    Format version              : Version 4
    File size                   : 12.5 GiB
    Duration                    : 1 h 37 min
    Overall bit rate mode       : Variable
    Overall bit rate            : 18.3 Mb/s
    Movie name                  : Undisputed 2 (2006) Full HD 1080p Latino - CMHDD
    Encoded date                : UTC 2021-04-05 02:59:21
    Writing application         : mkvmerge v51.0.0 ('I Wish') 64-bit
    Writing library             : libebml v1.4.0 + libmatroska v1.6.2

    Video
    ID                          : 1
    Format                      : AVC
    Format/Info                 : Advanced Video Codec
    Format profile              : High@L4.1
    Format settings             : CABAC / 4 Ref Frames
    Format settings, CABAC      : Yes
    Format settings, Reference  : 4 frames
    Codec ID                    : V_MPEG4/ISO/AVC
    Duration                    : 1 h 37 min
    Bit rate                    : 15.7 Mb/s
    Width                       : 1 920 pixels
    Height                      : 1 080 pixels
    Display aspect ratio        : 16:9
    Frame rate mode             : Constant
    Frame rate                  : 23.976 (24000/1001) FPS
    Color space                 : YUV
    Chroma subsampling          : 4:2:0
    Bit depth                   : 8 bits
    Scan type                   : Progressive
    Bits/(Pixel*Frame)          : 0.316
    Stream size                 : 10.7 GiB (86%)
    Writing library             : x264 core 157 r2935 545de2f
    Encoding settings           : cabac=1 / ref=4 / deblock=1:0:0 / analyse=0x3:0x133 / me=tesa / subme=11 / psy=1 / psy_rd=1.00:0.00 / mixed_ref=1 / me_range=24 / chroma_me=1 / trellis=2 / 8x8dct=1 / cqm=0 / deadzone=21,11 / fast_pskip=0 / chroma_qp_offset=-2 / threads=24 / lookahead_threads=6 / sliced_threads=0 / nr=0 / decimate=1 / interlaced=0 / bluray_compat=0 / constrained_intra=0 / bframes=16 / b_pyramid=2 / b_adapt=2 / b_bias=0 / direct=3 / weightb=1 / open_gop=0 / weightp=2 / keyint=240 / keyint_min=24 / scenecut=40 / intra_refresh=0 / rc_lookahead=60 / rc=crf / mbtree=1 / crf=20.0 / qcomp=0.60 / qpmin=0 / qpmax=69 / qpstep=4 / vbv_maxrate=62500 / vbv_bufsize=78125 / crf_max=0.0 / nal_hrd=none / filler=0 / ip_ratio=1.40 / aq=1:1.00
    Default                     : Yes
    Forced                      : No
    Color range                 : Limited
    Color primaries             : BT.709
    Transfer characteristics    : BT.709
    Matrix coefficients         : BT.709

    Audio #1
    ID                          : 2
    Format                      : AC-3
    Format/Info                 : Audio Coding 3
    Commercial name             : Dolby Digital
    Codec ID                    : A_AC3
    Duration                    : 1 h 37 min
    Bit rate mode               : Constant
    Bit rate                    : 256 kb/s
    Channel(s)                  : 2 channels
    Channel layout              : L R
    Sampling rate               : 48.0 kHz
    Frame rate                  : 31.250 FPS (1536 SPF)
    Compression mode            : Lossy
    Stream size                 : 179 MiB (1%)
    Language                    : Spanish
    Service kind                : Complete Main
    Default                     : Yes
    Forced                      : No

    Audio #2
    ID                          : 3
    Format                      : DTS XLL
    Format/Info                 : Digital Theater Systems
    Commercial name             : DTS-HD Master Audio
    Codec ID                    : A_DTS
    Duration                    : 1 h 37 min
    Bit rate mode               : Variable
    Bit rate                    : 2 309 kb/s
    Channel(s)                  : 6 channels
    Channel layout              : C L R Ls Rs LFE
    Sampling rate               : 48.0 kHz
    Frame rate                  : 93.750 FPS (512 SPF)
    Bit depth                   : 16 bits
    Compression mode            : Lossless
    Stream size                 : 1.57 GiB (13%)
    Language                    : English
    Default                     : No
    Forced                      : No

    Text
    ID                          : 4
    Format                      : UTF-8
    Codec ID                    : S_TEXT/UTF8
    Codec ID/Info               : UTF-8 Plain Text
    Duration                    : 1 h 29 min
    Bit rate                    : 37 b/s
    Count of elements           : 957
    Stream size                 : 24.9 KiB (0%)
    Language                    : Spanish
    Default                     : No
    Forced                      : No

    Menu
    00:00:00.000                : :00:00:00.000
    00:12:48.851                : :00:12:48.893
    00:20:02.076                : :00:20:02.118
    00:26:09.026                : :00:26:09.067
    00:30:53.310                : :00:30:53.351
    00:39:56.895                : :00:39:56.936
    00:48:14.016                : :00:48:14.058
    00:52:31.607                : :00:52:31.648
    00:58:56.491                : :00:58:56.533
    01:03:05.865                : :01:03:05.907
    01:11:07.263                : :01:11:07.305
    01:15:51.422                : :01:15:51.464
    01:19:19.713                : :01:19:19.755
    01:21:45.526                : :01:21:45.567
    01:28:16.583                : :01:28:16.625
    01:34:01.177                : :01:34:01.219

  • Peso: 12.5 GiB

Sinopsis

Un boxeador ex campeón del mundo, pero venido a menos y lleno de deudas viaja a Rusia con su agente para ganarse unos pesos grabando comerciales de Vodka, pero una vez allá caerá en manos de la mafia, que desea meterlo preso y enfrentarlo al campeón reinante de un torneo para reclusos que mueve muchísimo dinero. Es así como “Ice man” deberá vérselas con todos los reclusos y el corrupto mundo que ahí se vive.

Ficha técnica

Video trailer de la película

Enlaces de descarga

Rip de Bluray

Descargar Undisputed 2 (2006) Full HD 1080p Latino – CMHDD




Aportes de DPeliculasHDmega la pass es:dpeliculashdmega.org Aportes de CinemaniaHD la pass es:cinemaniahdd.com
Guardado en : Acción , Crimen , Suspenso

Películas relacionadas

  • Resurrección (2022) AMZN WEB-DL 1080p Latino

    Resurrección (2022) AMZN WEB-DL 1080p Latino

    2022
    Resurrección (2022) AMZN WEB-DL 1080p Latino

    1h 43m 2022

    Descargar Resurrección (2022) AMZN Web-DL 1080p Latino. La vida cuidadosamente construida de una mujer...

    Director: Michael Kefeyalew

    Género: Drama

    Actores: Zarra Kaahn

  • Walker (2022) Temporada 3 WEB-DL 1080p Latino

    Walker (2022) Temporada 3 WEB-DL 1080p Latino

    2021
    Walker (2022) Temporada 3 WEB-DL 1080p Latino

    0h 45m 2021

    Reboot de la serie de 1993 que se centra en Walker cuando regresa de años de incógnito. Viudo y...

    Director: Anna Fricke

    Género: Action & Adventure

    Actores: Violet Brinson

  • Plan De Estudios (2022) NF WEB-DL 1080p Latino

    Plan De Estudios (2022) NF WEB-DL 1080p Latino

    2022
    Plan De Estudios (2022) NF WEB-DL 1080p Latino

    1h 41m 2022

    Un expolicía empieza a trabajar en el instituto en el que su difunto mejor amigo daba clase para enfrentarse...

    Director: Daniel Markowicz

    Género: Crimen

    Actores: Zuzanna Galewicz

  • La Mujer Rey (2022) WEB-DL 1080p Latino

    La Mujer Rey (2022) WEB-DL 1080p Latino

    2022
    La Mujer Rey (2022) WEB-DL 1080p Latino

    2h 15m 2022

    Descargar La Mujer Rey (2022) WEB-DL 1080p Latino. Una epopeya histórica inspirada en los hechos reales...

    Director: Gina Prince-Bythewood

    Género: Acción

    Actores: Wanda Banda

  • Black Adam (2022) WEB-DL 4K UHD HDR Latino

    Black Adam (2022) WEB-DL 4K UHD HDR Latino

    2022
    Black Adam (2022) WEB-DL 4K UHD HDR Latino

    2h 4m 2022

    Descargar Black Adam (2022) WEB-DL 4K UHD HDR Latino. Casi 5.000 años después de haber sido dotado...

    Director: Jaume Collet-Serra

    Género: 4K HDR

    Actores: Yssa Mei Panganiban

descargar Undisputed 2 (2006) Full HD 1080p Latino – CMHDD Full 1080p 1080p gratis, Undisputed 2 (2006) Full HD 1080p Latino – CMHDD Full 1080p mega 1 link, Undisputed 2 (2006) Full HD 1080p Latino – CMHDD Full 1080p pelicula completa, descargar Undisputed 2 (2006) Full HD 1080p Latino – CMHDD Full 1080p gratis en mega.

Undisputed 2 (2006) Full HD 1080p Latino – CMHDD pelicula full hd, Undisputed 2 (2006) Full HD 1080p Latino – CMHDD mega latino, Undisputed 2 (2006) Full HD 1080p Latino – CMHDD 4k latino, Undisputed 2 (2006) Full HD 1080p Latino – CMHDD pelicula completa, Undisputed 2 (2006) Full HD 1080p Latino – CMHDD descargar gratis, descargar Undisputed 2 (2006) Full HD 1080p Latino – CMHDD pelicula latino, Undisputed 2 (2006) Full HD 1080p Latino – CMHDD 1 link mega, Undisputed 2 (2006) Full HD 1080p Latino – CMHDD 1 link google drive, Undisputed 2 (2006) Full HD 1080p Latino – CMHDD hd 1080p latino.
Comentarios 0