×

¿Problemas para descargar con Mozilla, EDGE? Deshabilita la opción "Abrir vinculos en una pestaña nueva" tal como lo muestra ésta imagen.

Underworld Rise Of The Lycans (2009) Full HD 1080p Latino – CMHDD

430 vistas

Información de Underworld Rise Of The Lycans (2009) Full HD 1080p Latino – CMHDD

Datos de la película

  • Calidad: Full 1080p
  • Audio: Español Latino AC3 5.1 BLURAY - Ingles AC3 5.1 BLURAY
  • Subtitulos: Español Latino SRT
  • Resolución: 1920x1080p
  • Formato: MKV
  • Codec: H.264
  • Encoder: Dracarys
  • Mediainfo: Clic para Mostrar Datos Ver
  • Format                      : Matroska
    Format version              : Version 4
    File size                   : 9.33 GiB
    Duration                    : 1 h 32 min
    Overall bit rate            : 14.5 Mb/s
    Movie name                  : Underworld Rise Of The Lycans (2009) Full HD 1080p Latino - CMHDD
    Encoded date                : UTC 2020-05-24 02:53:02
    Writing application         : mkvmerge v46.0.0 ('No Deeper Escape') 64-bit
    Writing library             : libebml v1.3.10 + libmatroska v1.5.2

    Video
    ID                          : 1
    Format                      : AVC
    Format/Info                 : Advanced Video Codec
    Format profile              : High@L4.1
    Format settings             : CABAC / 4 Ref Frames
    Format settings, CABAC      : Yes
    Format settings, Reference  : 4 frames
    Codec ID                    : V_MPEG4/ISO/AVC
    Duration                    : 1 h 32 min
    Bit rate                    : 13.2 Mb/s
    Width                       : 1 920 pixels
    Height                      : 1 080 pixels
    Display aspect ratio        : 16:9
    Frame rate mode             : Constant
    Frame rate                  : 23.976 (24000/1001) FPS
    Color space                 : YUV
    Chroma subsampling          : 4:2:0
    Bit depth                   : 8 bits
    Scan type                   : Progressive
    Bits/(Pixel*Frame)          : 0.265
    Stream size                 : 8.50 GiB (91%)
    Writing library             : x264 core 157 r2935 545de2f
    Encoding settings           : cabac=1 / ref=4 / deblock=1:0:0 / analyse=0x3:0x133 / me=tesa / subme=11 / psy=1 / psy_rd=1.00:0.00 / mixed_ref=1 / me_range=24 / chroma_me=1 / trellis=2 / 8x8dct=1 / cqm=0 / deadzone=21,11 / fast_pskip=0 / chroma_qp_offset=-2 / threads=24 / lookahead_threads=6 / sliced_threads=0 / nr=0 / decimate=1 / interlaced=0 / bluray_compat=0 / constrained_intra=0 / bframes=16 / b_pyramid=2 / b_adapt=2 / b_bias=0 / direct=3 / weightb=1 / open_gop=0 / weightp=2 / keyint=240 / keyint_min=24 / scenecut=40 / intra_refresh=0 / rc_lookahead=60 / rc=crf / mbtree=1 / crf=20.0 / qcomp=0.60 / qpmin=0 / qpmax=69 / qpstep=4 / vbv_maxrate=62500 / vbv_bufsize=78125 / crf_max=0.0 / nal_hrd=none / filler=0 / ip_ratio=1.40 / aq=1:1.00
    Default                     : Yes
    Forced                      : No
    Color range                 : Limited
    Color primaries             : BT.709
    Transfer characteristics    : BT.709
    Matrix coefficients         : BT.709

    Audio #1
    ID                          : 2
    Format                      : AC-3
    Format/Info                 : Audio Coding 3
    Commercial name             : Dolby Digital
    Codec ID                    : A_AC3
    Duration                    : 1 h 32 min
    Bit rate mode               : Constant
    Bit rate                    : 640 kb/s
    Channel(s)                  : 6 channels
    Channel layout              : L R C LFE Ls Rs
    Sampling rate               : 48.0 kHz
    Frame rate                  : 31.250 FPS (1536 SPF)
    Compression mode            : Lossy
    Stream size                 : 423 MiB (4%)
    Language                    : Spanish
    Service kind                : Complete Main
    Default                     : Yes
    Forced                      : No

    Audio #2
    ID                          : 3
    Format                      : AC-3
    Format/Info                 : Audio Coding 3
    Commercial name             : Dolby Digital
    Codec ID                    : A_AC3
    Duration                    : 1 h 32 min
    Bit rate mode               : Constant
    Bit rate                    : 640 kb/s
    Channel(s)                  : 6 channels
    Channel layout              : L R C LFE Ls Rs
    Sampling rate               : 48.0 kHz
    Frame rate                  : 31.250 FPS (1536 SPF)
    Compression mode            : Lossy
    Stream size                 : 423 MiB (4%)
    Language                    : English
    Service kind                : Complete Main
    Default                     : No
    Forced                      : No

    Text #1
    ID                          : 4
    Format                      : UTF-8
    Codec ID                    : S_TEXT/UTF8
    Codec ID/Info               : UTF-8 Plain Text
    Duration                    : 1 h 23 min
    Bit rate                    : 29 b/s
    Count of elements           : 641
    Stream size                 : 18.4 KiB (0%)
    Title                       : SRT-Completos
    Language                    : Spanish
    Default                     : No
    Forced                      : No

    Text #2
    ID                          : 5
    Format                      : PGS
    Muxing mode                 : zlib
    Codec ID                    : S_HDMV/PGS
    Codec ID/Info               : Picture based subtitle format used on BDs/HD-DVDs
    Duration                    : 1 h 23 min
    Bit rate                    : 17.4 kb/s
    Count of elements           : 1287
    Stream size                 : 10.4 MiB (0%)
    Title                       : PGS-Completos
    Language                    : Spanish
    Default                     : No
    Forced                      : No

    Menu
    00:00:00.000                : :Capítulo 01
    00:06:19.880                : :Capítulo 02
    00:11:42.827                : :Capítulo 03
    00:16:44.629                : :Capítulo 04
    00:24:33.055                : :Capítulo 05
    00:30:28.618                : :Capítulo 06
    00:36:33.191                : :Capítulo 07
    00:40:17.415                : :Capítulo 08
    00:46:28.995                : :Capítulo 09
    00:50:54.718                : :Capítulo 10
    00:55:08.222                : :Capítulo 11
    01:00:39.344                : :Capítulo 12
    01:07:13.404                : :Capítulo 13
    01:13:29.322                : :Capítulo 14
    01:16:38.969                : :Capítulo 15
    01:22:33.157                : :Capítulo 16

  • Peso: 9.33 GiB

Sinopsis

Una enemistad a muerte de siglos estalla entre dos tribus inmortales en Underworld: La rebelión de los Licántropos. La tercera película de la saga épica de Underworld retrocede en el tiempo y cuenta el origen del conflicto entre los aristocráticos vampiros, conocidos como los “Death Dealers”, y los salvajes licántropos, una línea de feroces hombres lobos. Tercera entrega de la popular saga Underworld, centrada en el conflicto existente entre los vampiros y los hombres lobo.

Ficha técnica

Video trailer de la película

Enlaces de descarga

Rip de Bluray

Descargar Underworld Rise Of The Lycans (2009) Full HD 1080p Latino – CMHDD




Aportes de DPeliculasHDmega la pass es:dpeliculashdmega.org Aportes de CinemaniaHD la pass es:cinemaniahdd.com

Películas relacionadas

descargar Underworld Rise Of The Lycans (2009) Full HD 1080p Latino – CMHDD Full 1080p 1080p gratis, Underworld Rise Of The Lycans (2009) Full HD 1080p Latino – CMHDD Full 1080p mega 1 link, Underworld Rise Of The Lycans (2009) Full HD 1080p Latino – CMHDD Full 1080p pelicula completa, descargar Underworld Rise Of The Lycans (2009) Full HD 1080p Latino – CMHDD Full 1080p gratis en mega.

Underworld Rise Of The Lycans (2009) Full HD 1080p Latino – CMHDD pelicula full hd, Underworld Rise Of The Lycans (2009) Full HD 1080p Latino – CMHDD mega latino, Underworld Rise Of The Lycans (2009) Full HD 1080p Latino – CMHDD 4k latino, Underworld Rise Of The Lycans (2009) Full HD 1080p Latino – CMHDD pelicula completa, Underworld Rise Of The Lycans (2009) Full HD 1080p Latino – CMHDD descargar gratis, descargar Underworld Rise Of The Lycans (2009) Full HD 1080p Latino – CMHDD pelicula latino, Underworld Rise Of The Lycans (2009) Full HD 1080p Latino – CMHDD 1 link mega, Underworld Rise Of The Lycans (2009) Full HD 1080p Latino – CMHDD 1 link google drive, Underworld Rise Of The Lycans (2009) Full HD 1080p Latino – CMHDD hd 1080p latino.
Comentarios 1
  • ocpgaiden - 02 junio, 2020

    Gracias cinemaniahdd, saludos