×

¿Problemas para descargar con Mozilla, EDGE? Deshabilita la opción "Abrir vinculos en una pestaña nueva" tal como lo muestra ésta imagen.

Underworld: Evolution (2006) Open Matte Full Latino

2.852 vistas

Información de Underworld: Evolution (2006) Open Matte Full Latino

Datos de la película

  • Calidad: Full 1080p
  • Audio: Español Latino AC3 5.1 BLURAY - Ingles DTS 5.1 BLURAY
  • Subtitulos: Español Latino PGS - Ingles PGS
  • Resolución: 1920x1080p
  • Formato: MKV
  • Codec: H.264
  • Encoder: dpelis1
  • Mediainfo: Clic para Mostrar Datos Ver
  • Underworld Evolution Open Matte (2006) FULL HD Latino-Ingles.mkv
    Format                      : Matroska
    Format version              : Version 4
    File size                   : 6.23 GiB
    Duration                    : 1 h 42 min
    Overall bit rate mode       : Variable
    Overall bit rate            : 8 738 kb/s
    Encoded date                : UTC 2017-05-05 08:41:58 / UTC 2017-05-02T17:17:27Z
    Writing application         : mkvmerge v10.0.0 ('To Drown In You') 64bit
    Writing library             : libebml v1.3.4 + libmatroska v1.4.5 / Lavf57.7.2

    Video
    ID                          : 1
    Format                      : AVC
    Format/Info                 : Advanced Video Codec
    Format profile              : High@L4.1
    Format settings             : CABAC / 4 Ref Frames
    Format settings, CABAC      : Yes
    Format settings, Reference  : 4 frames
    Codec ID                    : V_MPEG4/ISO/AVC
    Duration                    : 1 h 42 min
    Bit rate                    : 5 901 kb/s
    Width                       : 1 920 pixels
    Height                      : 1 080 pixels
    Display aspect ratio        : 16:9
    Frame rate mode             : Constant
    Frame rate                  : 25.000 FPS
    Color space                 : YUV
    Chroma subsampling          : 4:2:0
    Bit depth                   : 8 bits
    Scan type                   : Progressive
    Bits/(Pixel*Frame)          : 0.114
    Stream size                 : 4.21 GiB (68%)
    Writing library             : x264 core 148 r2708 86b7198
    Encoding settings           : cabac=1 / ref=4 / deblock=1:0:0 / analyse=0x3:0x133 / me=esa / subme=10 / psy=1 / psy_rd=1.00:0.00 / mixed_ref=1 / me_range=24 / chroma_me=1 / trellis=2 / 8x8dct=1 / cqm=0 / deadzone=21,11 / fast_pskip=1 / chroma_qp_offset=-2 / threads=12 / lookahead_threads=2 / sliced_threads=0 / nr=0 / decimate=1 / interlaced=0 / bluray_compat=0 / constrained_intra=0 / bframes=8 / b_pyramid=2 / b_adapt=2 / b_bias=0 / direct=3 / weightb=1 / open_gop=0 / weightp=2 / keyint=250 / keyint_min=25 / scenecut=40 / intra_refresh=0 / rc_lookahead=60 / rc=crf / mbtree=1 / crf=20.0 / qcomp=0.60 / qpmin=0 / qpmax=69 / qpstep=4 / vbv_maxrate=62500 / vbv_bufsize=78125 / crf_max=0.0 / nal_hrd=none / filler=0 / ip_ratio=1.40 / aq=1:1.00
    Default                     : Yes
    Forced                      : No
    Color range                 : Limited
    Color primaries             : BT.709
    Transfer characteristics    : BT.709
    Matrix coefficients         : BT.709

    Audio #1
    ID                          : 2
    Format                      : AC-3
    Format/Info                 : Audio Coding 3
    Commercial name             : Dolby Digital
    Codec ID                    : A_AC3
    Duration                    : 1 h 42 min
    Bit rate mode               : Constant
    Bit rate                    : 448 kb/s
    Channel(s)                  : 6 channels
    Channel layout              : L R C LFE Ls Rs
    Sampling rate               : 48.0 kHz
    Frame rate                  : 31.250 FPS (1536 SPF)
    Compression mode            : Lossy
    Stream size                 : 327 MiB (5%)
    Language                    : Spanish
    Service kind                : Complete Main
    Default                     : Yes
    Forced                      : No

    Audio #2
    ID                          : 3
    Format                      : DTS XLL
    Format/Info                 : Digital Theater Systems
    Commercial name             : DTS-HD Master Audio
    Codec ID                    : A_DTS
    Duration                    : 1 h 42 min
    Bit rate mode               : Variable
    Bit rate                    : 2 372 kb/s
    Channel(s)                  : 6 channels
    Channel layout              : C L R Ls Rs LFE
    Sampling rate               : 48.0 kHz
    Frame rate                  : 93.750 FPS (512 SPF)
    Bit depth                   : 16 bits
    Compression mode            : Lossless
    Stream size                 : 1.69 GiB (27%)
    Language                    : English
    Default                     : No
    Forced                      : No

    Text #1
    ID                          : 4
    Format                      : UTF-8
    Codec ID                    : S_TEXT/UTF8
    Codec ID/Info               : UTF-8 Plain Text
    Duration                    : 10 s 100 ms
    Bit rate                    : 91 b/s
    Count of elements           : 1
    Stream size                 : 115 Bytes (0%)
    Default                     : Yes
    Forced                      : No

    Text #2
    ID                          : 5
    Format                      : PGS
    Muxing mode                 : zlib
    Codec ID                    : S_HDMV/PGS
    Codec ID/Info               : Picture based subtitle format used on BDs/HD-DVDs
    Duration                    : 1 h 35 min
    Bit rate                    : 7 253 b/s
    Count of elements           : 1116
    Stream size                 : 4.94 MiB (0%)
    Language                    : Spanish
    Default                     : No
    Forced                      : No

    Text #3
    ID                          : 6
    Format                      : PGS
    Muxing mode                 : zlib
    Codec ID                    : S_HDMV/PGS
    Codec ID/Info               : Picture based subtitle format used on BDs/HD-DVDs
    Duration                    : 1 h 32 min
    Bit rate                    : 7 305 b/s
    Count of elements           : 1082
    Stream size                 : 4.85 MiB (0%)
    Language                    : English
    Default                     : No
    Forced                      : No

    Menu
    00:00:00.000                : :Chapter 1
    00:09:19.200                : :Chapter 2
    00:11:48.440                : :Chapter 3
    00:16:34.640                : :Chapter 4
    00:22:13.240                : :Chapter 5
    00:32:27.400                : :Chapter 6
    00:37:22.000                : :Chapter 7
    00:41:43.840                : :Chapter 8
    00:47:12.680                : :Chapter 9
    00:54:26.800                : :Chapter 10
    01:00:32.520                : :Chapter 11
    01:07:51.400                : :Chapter 12
    01:14:09.800                : :Chapter 13
    01:17:01.680                : :Chapter 14
    01:24:50.320                : :Chapter 15
    01:29:23.320                : :Chapter 16

     

  • Peso: 6,22GB

Sinopsis

Descargar gratis Underworld: Evolution (2006) Open Matte Full Latino Mega. La lucha milenaria entre depredadores ha adoptado nuevas dimensiones de violencia. Ha nacido una nueva raza en nada comparable a ninguna otra conocida. Traicionada por los de su propio clan, la guerrera vampiro Selene (Kate Beckinsale), busca venganza. Para ello, decide descubrir la verdad sobre la identidad del primer Inmortal verdadero. No es Marcus, el rey de los vampiros como se creía, sino Alexander Corvinus, padre de Marcus y de su hermano gemelo William. Selene y el híbrido Michael (Scott Speedman), protagonistas de un amor prohibido, lucharán juntos contra el poderoso Marcus, quien está decidido a liberar a su hermano preso y usar la sed de sangre de éste para llegar a dominar el mundo.

Ficha técnica

Video trailer de la película

Enlaces de descarga

Rip de Bluray

Descargar Underworld: Evolution (2006) Open Matte Full Latino




Aportes de DPeliculasHDmega la pass es:dpeliculashdmega.org Aportes de CinemaniaHD la pass es:cinemaniahdd.com

Películas relacionadas

  • Un mundo extraño (2022) HD 1080p Latino

    Un mundo extraño (2022) HD 1080p Latino

    2022
    Un mundo extraño (2022) HD 1080p Latino

    1h 42m 2022

    Descargar Un mundo extraño (2022) HD 1080p Latino. Los Clades son una familia conocida en todo el mundo,...

    Director: Thai Bettistea

    Género: Animación

    Actores: Reed Buck

  • Un mundo extraño (2022) REMUX 1080p Latino

    Un mundo extraño (2022) REMUX 1080p Latino

    2022
    Un mundo extraño (2022) REMUX 1080p Latino

    1h 42m 2022

    Descargar Un mundo extraño (2022) REMUX 1080p. Un viaje a una tierra inexplorada y traicionera en la...

    Director: Thai Bettistea

    Género: Animación

    Actores: Reed Buck

  • Lobo Vikingo (2022) NF WEB-DL 1080p Latino

    Lobo Vikingo (2022) NF WEB-DL 1080p Latino

    2022
    Lobo Vikingo (2022) NF WEB-DL 1080p Latino

    1h 38m 2022

    Descargar Lobo Vikingo (2022) NF WEB-DL 1080p Latino. Thale (17) acaba de mudarse con sus padres a un...

    Director: Stig Svendsen

    Género: Netflix

    Actores: Vidar Magnussen

  • Infiesto (2023) NF WEB-DL 1080p Castellano

    Infiesto (2023) NF WEB-DL 1080p Castellano

    2023
    Infiesto (2023) NF WEB-DL 1080p Castellano

    1h 36m 2023

    Descargar Infiesto (2023) NF WEB-DL 1080p Castellano. Mientras el coronavirus trastoca sus vidas, dos...

    Director: Patxi Amezcua

    Género: Crimen

    Actores: Luis Zahera

descargar Underworld: Evolution (2006) Open Matte Full Latino Full 1080p 1080p gratis, Underworld: Evolution (2006) Open Matte Full Latino Full 1080p mega 1 link, Underworld: Evolution (2006) Open Matte Full Latino Full 1080p pelicula completa, descargar Underworld: Evolution (2006) Open Matte Full Latino Full 1080p gratis en mega.

Underworld: Evolution (2006) Open Matte Full Latino pelicula full hd, Underworld: Evolution (2006) Open Matte Full Latino mega latino, Underworld: Evolution (2006) Open Matte Full Latino 4k latino, Underworld: Evolution (2006) Open Matte Full Latino pelicula completa, Underworld: Evolution (2006) Open Matte Full Latino descargar gratis, descargar Underworld: Evolution (2006) Open Matte Full Latino pelicula latino, Underworld: Evolution (2006) Open Matte Full Latino 1 link mega, Underworld: Evolution (2006) Open Matte Full Latino 1 link google drive, Underworld: Evolution (2006) Open Matte Full Latino hd 1080p latino.
Comentarios 12
  • Eric Cuatecontzi Peña - 27 marzo, 2018

    Descargada y descomprimida sin problemas, Se ve excelente en mi TV

  • Eric - 05 febrero, 2018

    Hola, los enlaces de Mega no sirven…

    • Dracarys - 22 febrero, 2018

      para descargar de mega usar gestor de descarga

  • Eric Cuatecontzi Peña - 04 febrero, 2018

    Los enlaces de Mega estan Caidos…

    • Dracarys - 22 febrero, 2018

      para descargar de mega usar gestor de descarga

  • Eric - 29 enero, 2018

    Excelente aporte, subirán la Primera Underworld 2003, esta en Open Matte y en versión Extended

    • Dracarys - 29 enero, 2018

      No todas las Peliculas de Una saga están en open matte!

      • Eric - 30 enero, 2018

        Claro, pero en otra página vi Underworld 2003 Open Matte Extended, solo que tenía partes dañadas y no pude visualizar bien

  • paulo - 08 junio, 2017

    ok muchas gracias

  • paulo - 08 junio, 2017

    hola, no aparecen los enlaces de descarga porque….!!!!

  • paulo - 08 junio, 2017

    HOLA LOS ENLACES YA NO APARECEN..!!!!! PORQUE????