×

¿Problemas para descargar con Mozilla, EDGE? Deshabilita la opción "Abrir vinculos en una pestaña nueva" tal como lo muestra ésta imagen.

Underworld Evolution (2006) [Extended Cut] REMUX 1080p Latino – CMHDD

435 vistas

Información de Underworld Evolution (2006) [Extended Cut] REMUX 1080p Latino – CMHDD

Datos de la película

  • Calidad: Full 1080p
  • Audio: Se especifica abajo de la Sinopsis
  • Subtitulos: Español Latino SRT
  • Resolución: 1920x1080p
  • Formato: MKV
  • Codec: H.264
  • Encoder: Dracarys
  • Mediainfo: Clic para Mostrar Datos Ver
  • Format                      : Matroska
    Format version              : Version 4
    File size                   : 23.6 GiB
    Duration                    : 1 h 46 min
    Overall bit rate mode       : Variable
    Overall bit rate            : 31.8 Mb/s
    Movie name                  : Underworld Evolution (2006) [Extended Cut] REMUX 1080p Latino - CMHDD
    Encoded date                : UTC 2020-05-22 03:05:47
    Writing application         : mkvmerge v46.0.0 ('No Deeper Escape') 64-bit
    Writing library             : libebml v1.3.10 + libmatroska v1.5.2

    Video
    ID                          : 1
    Format                      : AVC
    Format/Info                 : Advanced Video Codec
    Format profile              : High@L4.1
    Format settings             : CABAC / 4 Ref Frames
    Format settings, CABAC      : Yes
    Format settings, Reference  : 4 frames
    Codec ID                    : V_MPEG4/ISO/AVC
    Duration                    : 1 h 46 min
    Bit rate mode               : Variable
    Bit rate                    : 28.8 Mb/s
    Maximum bit rate            : 35.0 Mb/s
    Width                       : 1 920 pixels
    Height                      : 1 080 pixels
    Display aspect ratio        : 16:9
    Frame rate mode             : Constant
    Frame rate                  : 23.976 (24000/1001) FPS
    Standard                    : NTSC
    Color space                 : YUV
    Chroma subsampling          : 4:2:0
    Bit depth                   : 8 bits
    Scan type                   : Progressive
    Bits/(Pixel*Frame)          : 0.579
    Stream size                 : 21.4 GiB (91%)
    Default                     : Yes
    Forced                      : No
    Color range                 : Limited
    Color primaries             : BT.709
    Transfer characteristics    : BT.709
    Matrix coefficients         : BT.709

    Audio #1
    ID                          : 2
    Format                      : E-AC-3
    Format/Info                 : Enhanced AC-3
    Commercial name             : Dolby Digital Plus
    Codec ID                    : A_EAC3
    Duration                    : 1 h 46 min
    Bit rate mode               : Constant
    Bit rate                    : 640 kb/s
    Channel(s)                  : 6 channels
    Channel layout              : L R C LFE Ls Rs
    Sampling rate               : 48.0 kHz
    Frame rate                  : 31.250 FPS (1536 SPF)
    Compression mode            : Lossy
    Delay relative to video     : -844 ms
    Stream size                 : 487 MiB (2%)
    Language                    : Spanish
    Service kind                : Complete Main
    Default                     : Yes
    Forced                      : Yes

    Audio #2
    ID                          : 3
    Format                      : DTS XLL
    Format/Info                 : Digital Theater Systems
    Commercial name             : DTS-HD Master Audio
    Codec ID                    : A_DTS
    Duration                    : 1 h 46 min
    Bit rate mode               : Variable
    Bit rate                    : 2 361 kb/s
    Channel(s)                  : 6 channels
    Channel layout              : C L R Ls Rs LFE
    Sampling rate               : 48.0 kHz
    Frame rate                  : 93.750 FPS (512 SPF)
    Bit depth                   : 16 bits
    Compression mode            : Lossless
    Stream size                 : 1.75 GiB (7%)
    Language                    : English
    Default                     : No
    Forced                      : No

    Text #1
    ID                          : 4
    Format                      : UTF-8
    Codec ID                    : S_TEXT/UTF8
    Codec ID/Info               : UTF-8 Plain Text
    Duration                    : 1 h 39 min
    Bit rate                    : 22 b/s
    Count of elements           : 559
    Stream size                 : 16.2 KiB (0%)
    Language                    : Spanish
    Default                     : No
    Forced                      : No

    Text #2
    ID                          : 5
    Format                      : PGS
    Muxing mode                 : zlib
    Codec ID                    : S_HDMV/PGS
    Codec ID/Info               : Picture based subtitle format used on BDs/HD-DVDs
    Duration                    : 1 h 39 min
    Bit rate                    : 22.0 kb/s
    Count of elements           : 1118
    Stream size                 : 15.6 MiB (0%)
    Language                    : Spanish
    Default                     : No
    Forced                      : No

    Menu
    00:00:00.000                : :Capítulo 01
    00:09:46.586                : :Capítulo 02
    00:12:21.532                : :Capítulo 03
    00:17:18.829                : :Capítulo 04
    00:23:13.350                : :Capítulo 05
    00:33:49.944                : :Capítulo 06
    00:38:59.628                : :Capítulo 07
    00:43:34.278                : :Capítulo 08
    00:49:14.743                : :Capítulo 09
    00:56:47.237                : :Capítulo 10
    01:03:12.580                : :Capítulo 11
    01:10:36.190                : :Capítulo 12
    01:17:21.637                : :Capítulo 13
    01:21:31.136                : :Capítulo 14
    01:28:48.573                : :Capítulo 15
    01:32:16.614                : :Capítulo 16

  • Peso: 23.6 GiB

Sinopsis

La lucha milenaria entre depredadores ha adoptado nuevas dimensiones de violencia. Ha nacido una nueva raza en nada comparable a ninguna otra conocida. Traicionada por los de su propio clan, la guerrera vampiro Selene (Kate Beckinsale), busca venganza. Para ello, decide descubrir la verdad sobre la identidad del primer Inmortal verdadero. No es Marcus, el rey de los vampiros como se creía, sino Alexander Corvinus, padre de Marcus y de su hermano gemelo William. Selene y el híbrido Michael (Scott Speedman), protagonistas de un amor prohibido, lucharán juntos contra el poderoso Marcus, quien está decidido a liberar a su hermano preso y usar la sed de sangre de éste para llegar a dominar el mundo.

 

 

Latino: E-AC3 5.1  –  Ingles: DTS-HD MA 5.1

Ficha técnica

Video trailer de la película

Enlaces de descarga

Rip de Bluray

Descargar Underworld Evolution (2006) [Extended Cut] REMUX 1080p Latino – CMHDD




Aportes de DPeliculasHDmega la pass es:dpeliculashdmega.org Aportes de CinemaniaHD la pass es:cinemaniahdd.com

Películas relacionadas

  • Wire Room (2022) HD 1080p Latino

    Wire Room (2022) HD 1080p Latino

    2022
    Wire Room (2022) HD 1080p Latino

    1h 37m 2022

    Descargar Wire Room (2022) HD 1080p Latino. Mientras está de servicio en la sala de cables, un agente...

    Director: Matt Eskandari

    Género: Acción

    Actores: Texas Battle

  • Wire Room (2022) PLACEBO Full HD 1080p Latino

    Wire Room (2022) PLACEBO Full HD 1080p Latino

    2022
    Wire Room (2022) PLACEBO Full HD 1080p Latino

    1h 37m 2022

    Descargar Wire Room (2022) PLACEBO Full HD 1080p Latino. Mientras está de servicio en la sala de cables,...

    Director: Matt Eskandari

    Género: Acción

    Actores: Texas Battle

  • Wire Room (2022) REMUX 1080p Latino

    Wire Room (2022) REMUX 1080p Latino

    2022
    Wire Room (2022) REMUX 1080p Latino

    1h 37m 2022

    Descargar Wire Room (2022) REMUX 1080p Latino. Mientras está de servicio en la sala de cables, un agente...

    Director: Matt Eskandari

    Género: Acción

    Actores: Texas Battle

  • Alarido (2022) HD 1080p Latino

    Alarido (2022) HD 1080p Latino

    2022
    Alarido (2022) HD 1080p Latino

    1h 29m 2022

    Descargar Alarido (2022) HD 1080p Latino. Una joven madre soltera es cautiva junto con sus dos hijos...

    Director: D.J. Caruso

    Género: HD 1080p

    Actores: Vincent Gallo

  • Alarido (2022) PLACEBO Full HD 1080p Latino

    Alarido (2022) PLACEBO Full HD 1080p Latino

    2022
    Alarido (2022) PLACEBO Full HD 1080p Latino

    1h 29m 2022

    Descargar Alarido (2022) PLACEBO Full HD 1080p Latino. Una joven madre soltera es cautiva junto con sus...

    Director: D.J. Caruso

    Género: FULL 1080p Plateadas

    Actores: Vincent Gallo

descargar Underworld Evolution (2006) [Extended Cut] REMUX 1080p Latino – CMHDD Full 1080p 1080p gratis, Underworld Evolution (2006) [Extended Cut] REMUX 1080p Latino – CMHDD Full 1080p mega 1 link, Underworld Evolution (2006) [Extended Cut] REMUX 1080p Latino – CMHDD Full 1080p pelicula completa, descargar Underworld Evolution (2006) [Extended Cut] REMUX 1080p Latino – CMHDD Full 1080p gratis en mega.

Underworld Evolution (2006) [Extended Cut] REMUX 1080p Latino – CMHDD pelicula full hd, Underworld Evolution (2006) [Extended Cut] REMUX 1080p Latino – CMHDD mega latino, Underworld Evolution (2006) [Extended Cut] REMUX 1080p Latino – CMHDD 4k latino, Underworld Evolution (2006) [Extended Cut] REMUX 1080p Latino – CMHDD pelicula completa, Underworld Evolution (2006) [Extended Cut] REMUX 1080p Latino – CMHDD descargar gratis, descargar Underworld Evolution (2006) [Extended Cut] REMUX 1080p Latino – CMHDD pelicula latino, Underworld Evolution (2006) [Extended Cut] REMUX 1080p Latino – CMHDD 1 link mega, Underworld Evolution (2006) [Extended Cut] REMUX 1080p Latino – CMHDD 1 link google drive, Underworld Evolution (2006) [Extended Cut] REMUX 1080p Latino – CMHDD hd 1080p latino.
Comentarios 3
  • koti - 07 diciembre, 2020

    una consulta, Extended Cut en esta película se refiere a más escenas?

  • ocpgaiden - 02 junio, 2020

    Gracias por el remux, saludos