×

¿Problemas para descargar con Mozilla, EDGE? Deshabilita la opción "Abrir vinculos en una pestaña nueva" tal como lo muestra ésta imagen.

Underworld Evolution (2006) [Extended Cut] Full HD 1080p Latino – CMHDD

556 vistas

Información de Underworld Evolution (2006) [Extended Cut] Full HD 1080p Latino – CMHDD

Datos de la película

  • Calidad: Full 1080p
  • Audio: Se especifica abajo de la Sinopsis
  • Subtitulos: Español Latino SRT
  • Resolución: 1920x1080p
  • Formato: MKV
  • Codec: H.264
  • Encoder: Dracarys
  • Mediainfo: Clic para Mostrar Datos Ver
  • Format                      : Matroska
    Format version              : Version 4
    File size                   : 7.29 GiB
    Duration                    : 1 h 46 min
    Overall bit rate mode       : Variable
    Overall bit rate            : 9 810 kb/s
    Movie name                  : Underworld Evolution (2006) [Extended Cut] Full HD 1080p Latino - CMHDD
    Encoded date                : UTC 2020-05-24 02:48:40
    Writing application         : mkvmerge v46.0.0 ('No Deeper Escape') 64-bit
    Writing library             : libebml v1.3.10 + libmatroska v1.5.2

    Video
    ID                          : 1
    Format                      : AVC
    Format/Info                 : Advanced Video Codec
    Format profile              : High@L4.1
    Format settings             : CABAC / 4 Ref Frames
    Format settings, CABAC      : Yes
    Format settings, Reference  : 4 frames
    Codec ID                    : V_MPEG4/ISO/AVC
    Duration                    : 1 h 46 min
    Bit rate                    : 6 800 kb/s
    Width                       : 1 920 pixels
    Height                      : 1 080 pixels
    Display aspect ratio        : 16:9
    Frame rate mode             : Constant
    Frame rate                  : 23.976 (24000/1001) FPS
    Color space                 : YUV
    Chroma subsampling          : 4:2:0
    Bit depth                   : 8 bits
    Scan type                   : Progressive
    Bits/(Pixel*Frame)          : 0.137
    Stream size                 : 5.05 GiB (69%)
    Writing library             : x264 core 157 r2935 545de2f
    Encoding settings           : cabac=1 / ref=4 / deblock=1:0:0 / analyse=0x3:0x133 / me=tesa / subme=11 / psy=1 / psy_rd=1.00:0.00 / mixed_ref=1 / me_range=24 / chroma_me=1 / trellis=2 / 8x8dct=1 / cqm=0 / deadzone=21,11 / fast_pskip=0 / chroma_qp_offset=-2 / threads=24 / lookahead_threads=6 / sliced_threads=0 / nr=0 / decimate=1 / interlaced=0 / bluray_compat=0 / constrained_intra=0 / bframes=16 / b_pyramid=2 / b_adapt=2 / b_bias=0 / direct=3 / weightb=1 / open_gop=0 / weightp=2 / keyint=240 / keyint_min=24 / scenecut=40 / intra_refresh=0 / rc_lookahead=60 / rc=crf / mbtree=1 / crf=20.0 / qcomp=0.60 / qpmin=0 / qpmax=69 / qpstep=4 / vbv_maxrate=62500 / vbv_bufsize=78125 / crf_max=0.0 / nal_hrd=none / filler=0 / ip_ratio=1.40 / aq=1:1.00
    Default                     : Yes
    Forced                      : No
    Color range                 : Limited
    Color primaries             : BT.709
    Transfer characteristics    : BT.709
    Matrix coefficients         : BT.709

    Audio #1
    ID                          : 2
    Format                      : E-AC-3
    Format/Info                 : Enhanced AC-3
    Commercial name             : Dolby Digital Plus
    Codec ID                    : A_EAC3
    Duration                    : 1 h 46 min
    Bit rate mode               : Constant
    Bit rate                    : 640 kb/s
    Channel(s)                  : 6 channels
    Channel layout              : L R C LFE Ls Rs
    Sampling rate               : 48.0 kHz
    Frame rate                  : 31.250 FPS (1536 SPF)
    Compression mode            : Lossy
    Delay relative to video     : -844 ms
    Stream size                 : 487 MiB (7%)
    Language                    : Spanish
    Service kind                : Complete Main
    Default                     : Yes
    Forced                      : No

    Audio #2
    ID                          : 3
    Format                      : DTS XLL
    Format/Info                 : Digital Theater Systems
    Commercial name             : DTS-HD Master Audio
    Codec ID                    : A_DTS
    Duration                    : 1 h 46 min
    Bit rate mode               : Variable
    Bit rate                    : 2 361 kb/s
    Channel(s)                  : 6 channels
    Channel layout              : C L R Ls Rs LFE
    Sampling rate               : 48.0 kHz
    Frame rate                  : 93.750 FPS (512 SPF)
    Bit depth                   : 16 bits
    Compression mode            : Lossless
    Stream size                 : 1.75 GiB (24%)
    Language                    : English
    Default                     : No
    Forced                      : No

    Text #1
    ID                          : 4
    Format                      : UTF-8
    Codec ID                    : S_TEXT/UTF8
    Codec ID/Info               : UTF-8 Plain Text
    Duration                    : 1 h 39 min
    Bit rate                    : 22 b/s
    Count of elements           : 559
    Stream size                 : 16.2 KiB (0%)
    Title                       : SRT-Completos
    Language                    : Spanish
    Default                     : Yes
    Forced                      : No

    Text #2
    ID                          : 5
    Format                      : PGS
    Muxing mode                 : zlib
    Codec ID                    : S_HDMV/PGS
    Codec ID/Info               : Picture based subtitle format used on BDs/HD-DVDs
    Duration                    : 1 h 39 min
    Bit rate                    : 22.0 kb/s
    Count of elements           : 1118
    Stream size                 : 15.6 MiB (0%)
    Title                       : PGS-Completos
    Language                    : Spanish
    Default                     : No
    Forced                      : No

    Menu
    00:00:00.844                : :Capítulo 01
    00:09:46.596                : :Capítulo 02
    00:12:21.542                : :Capítulo 03
    00:17:18.839                : :Capítulo 04
    00:23:13.402                : :Capítulo 05
    00:33:49.954                : :Capítulo 06
    00:38:59.722                : :Capítulo 07
    00:43:34.288                : :Capítulo 08
    00:49:14.753                : :Capítulo 09
    00:56:47.289                : :Capítulo 10
    01:03:12.632                : :Capítulo 11
    01:10:36.200                : :Capítulo 12
    01:17:21.689                : :Capítulo 13
    01:21:31.188                : :Capítulo 14
    01:28:48.625                : :Capítulo 15
    01:32:16.624                : :Capítulo 16

  • Peso: 7.29 GiB

Sinopsis

La lucha milenaria entre depredadores ha adoptado nuevas dimensiones de violencia. Ha nacido una nueva raza en nada comparable a ninguna otra conocida. Traicionada por los de su propio clan, la guerrera vampiro Selene (Kate Beckinsale), busca venganza. Para ello, decide descubrir la verdad sobre la identidad del primer Inmortal verdadero. No es Marcus, el rey de los vampiros como se creía, sino Alexander Corvinus, padre de Marcus y de su hermano gemelo William. Selene y el híbrido Michael (Scott Speedman), protagonistas de un amor prohibido, lucharán juntos contra el poderoso Marcus, quien está decidido a liberar a su hermano preso y usar la sed de sangre de éste para llegar a dominar el mundo.

 

Latino: E-AC3 5.1  –  Ingles: DTS-HD MA 5.1

Ficha técnica

Video trailer de la película

Enlaces de descarga

Rip de Bluray

Descargar Underworld Evolution (2006) [Extended Cut] Full HD 1080p Latino – CMHDD




Aportes de DPeliculasHDmega la pass es:dpeliculashdmega.org Aportes de CinemaniaHD la pass es:cinemaniahdd.com

Películas relacionadas

  • Mi amigo el dragón (2016) Full HD 1080p Latino

    Mi amigo el dragón (2016) Full HD 1080p Latino

    2016
    Mi amigo el dragón (2016) Full HD 1080p Latino

    1h 43m 2016

    Descargar Mi amigo el dragón (2016) Full HD 1080p Latino. Durante años el Sr. Meacham, un viejo tallador...

    Director: Joe Nolan

    Género: Aventura

    Actores: William J. Rawbone

  • Mi amigo el dragón (2016) REMUX 1080p Latino

    Mi amigo el dragón (2016) REMUX 1080p Latino

    2016
    Mi amigo el dragón (2016) REMUX 1080p Latino

    1h 43m 2016

    Descargar Mi amigo el dragón (2016) REMUX 1080p Latino. Durante años el Sr. Meacham, un viejo tallador...

    Director: Joe Nolan

    Género: Aventura

    Actores: William J. Rawbone

  • El discurso del Rey (2010) Full HD 1080p Latino

    El discurso del Rey (2010) Full HD 1080p Latino

    2010
    El discurso del Rey (2010) Full HD 1080p Latino

    1h 58m 2010

    Descargar El discurso del Rey (2010) Full HD 1080p Latino. El duque de York se convirtió en rey de Gran...

    Director: Tom Hooper

    Género: Drama

    Actores: Tony Earnshaw

  • Lucy (2014) REMUX 4K HDR Latino – CMHDD

    Lucy (2014) REMUX 4K HDR Latino – CMHDD

    2014
    Lucy (2014) REMUX 4K HDR Latino – CMHDD

    1h 30m 2014

    Lucy, una joven obligada a ejercer de mula de una nueva y potente droga, adquiere de repente enormes...

    Director: Luc Besson

    Género: Acción

    Actores: Wolfgang Pissors

descargar Underworld Evolution (2006) [Extended Cut] Full HD 1080p Latino – CMHDD Full 1080p 1080p gratis, Underworld Evolution (2006) [Extended Cut] Full HD 1080p Latino – CMHDD Full 1080p mega 1 link, Underworld Evolution (2006) [Extended Cut] Full HD 1080p Latino – CMHDD Full 1080p pelicula completa, descargar Underworld Evolution (2006) [Extended Cut] Full HD 1080p Latino – CMHDD Full 1080p gratis en mega.

Underworld Evolution (2006) [Extended Cut] Full HD 1080p Latino – CMHDD pelicula full hd, Underworld Evolution (2006) [Extended Cut] Full HD 1080p Latino – CMHDD mega latino, Underworld Evolution (2006) [Extended Cut] Full HD 1080p Latino – CMHDD 4k latino, Underworld Evolution (2006) [Extended Cut] Full HD 1080p Latino – CMHDD pelicula completa, Underworld Evolution (2006) [Extended Cut] Full HD 1080p Latino – CMHDD descargar gratis, descargar Underworld Evolution (2006) [Extended Cut] Full HD 1080p Latino – CMHDD pelicula latino, Underworld Evolution (2006) [Extended Cut] Full HD 1080p Latino – CMHDD 1 link mega, Underworld Evolution (2006) [Extended Cut] Full HD 1080p Latino – CMHDD 1 link google drive, Underworld Evolution (2006) [Extended Cut] Full HD 1080p Latino – CMHDD hd 1080p latino.
Comentarios 1
  • ocpgaiden - 02 junio, 2020

    Gracias por Underworld Evolución, saludos