×

¿Problemas para descargar con Mozilla, EDGE? Deshabilita la opción "Abrir vinculos en una pestaña nueva" tal como lo muestra ésta imagen.

Underworld Blood Wars (2016) REMUX 1080p Latino – CMHDD

415 vistas

Información de Underworld Blood Wars (2016) REMUX 1080p Latino – CMHDD

Datos de la película

  • Calidad: Full 1080p
  • Audio: Español Latino DTS 5.1 BLURAY - Ingles DTS 5.1 BLURAY
  • Subtitulos: Español Latino SRT- FORZADOS SRT
  • Resolución: 1920x1080p
  • Formato: MKV
  • Codec: H.264
  • Encoder: Dracarys
  • Mediainfo: Clic para Mostrar Datos Ver
  • Format                      : Matroska
    Format version              : Version 4
    File size                   : 19.0 GiB
    Duration                    : 1 h 31 min
    Overall bit rate mode       : Variable
    Overall bit rate            : 29.7 Mb/s
    Movie name                  : Underworld Blood Wars (2016) REMUX 1080p Latino - CMHDD
    Encoded date                : UTC 2020-05-23 07:11:22
    Writing application         : mkvmerge v46.0.0 ('No Deeper Escape') 64-bit
    Writing library             : libebml v1.3.10 + libmatroska v1.5.2

    Video
    ID                          : 1
    Format                      : AVC
    Format/Info                 : Advanced Video Codec
    Format profile              : High@L4.1
    Format settings             : CABAC / 2 Ref Frames
    Format settings, CABAC      : Yes
    Format settings, Reference  : 2 frames
    Format settings, GOP        : M=1, N=10
    Codec ID                    : V_MPEG4/ISO/AVC
    Duration                    : 1 h 31 min
    Bit rate mode               : Variable
    Bit rate                    : 24.9 Mb/s
    Width                       : 1 920 pixels
    Height                      : 1 080 pixels
    Display aspect ratio        : 16:9
    Frame rate mode             : Constant
    Frame rate                  : 23.976 (24000/1001) FPS
    Color space                 : YUV
    Chroma subsampling          : 4:2:0
    Bit depth                   : 8 bits
    Scan type                   : Progressive
    Bits/(Pixel*Frame)          : 0.502
    Stream size                 : 16.0 GiB (84%)
    Title                       : Underworld.Blood.Wars.2016.1080p.BluRay.REMUX.AVC.DTS-HD.MA.5.1-FGT
    Language                    : English
    Default                     : No
    Forced                      : No

    Audio #1
    ID                          : 2
    Format                      : DTS XLL
    Format/Info                 : Digital Theater Systems
    Commercial name             : DTS-HD Master Audio
    Codec ID                    : A_DTS
    Duration                    : 1 h 31 min
    Bit rate mode               : Variable
    Bit rate                    : 2 392 kb/s
    Channel(s)                  : 6 channels
    Channel layout              : C L R Ls Rs LFE
    Sampling rate               : 48.0 kHz
    Frame rate                  : 93.750 FPS (512 SPF)
    Bit depth                   : 16 bits
    Compression mode            : Lossless
    Stream size                 : 1.53 GiB (8%)
    Language                    : Spanish
    Default                     : No
    Forced                      : No

    Audio #2
    ID                          : 3
    Format                      : DTS XLL
    Format/Info                 : Digital Theater Systems
    Commercial name             : DTS-HD Master Audio
    Codec ID                    : A_DTS
    Duration                    : 1 h 31 min
    Bit rate mode               : Variable
    Bit rate                    : 2 354 kb/s
    Channel(s)                  : 6 channels
    Channel layout              : C L R Ls Rs LFE
    Sampling rate               : 48.0 kHz
    Frame rate                  : 93.750 FPS (512 SPF)
    Bit depth                   : 16 bits
    Compression mode            : Lossless
    Stream size                 : 1.50 GiB (8%)
    Language                    : English
    Default                     : Yes
    Forced                      : No

    Text #1
    ID                          : 4
    Format                      : UTF-8
    Codec ID                    : S_TEXT/UTF8
    Codec ID/Info               : UTF-8 Plain Text
    Duration                    : 1 h 24 min
    Bit rate                    : 0 b/s
    Count of elements           : 3
    Stream size                 : 123 Bytes (0%)
    Title                       : SRT-Forzados
    Default                     : Yes
    Forced                      : No

    Text #2
    ID                          : 5
    Format                      : UTF-8
    Codec ID                    : S_TEXT/UTF8
    Codec ID/Info               : UTF-8 Plain Text
    Duration                    : 1 h 30 min
    Bit rate                    : 36 b/s
    Count of elements           : 765
    Stream size                 : 24.5 KiB (0%)
    Title                       : SRT-Completos
    Language                    : Spanish
    Default                     : No
    Forced                      : No

    Text #3
    ID                          : 6
    Format                      : PGS
    Muxing mode                 : zlib
    Codec ID                    : S_HDMV/PGS
    Codec ID/Info               : Picture based subtitle format used on BDs/HD-DVDs
    Duration                    : 1 h 30 min
    Bit rate                    : 20.9 kb/s
    Count of elements           : 1530
    Stream size                 : 13.6 MiB (0%)
    Title                       : PGS-Completos
    Language                    : Spanish
    Default                     : No
    Forced                      : No

    Menu
    00:00:00.000                : en:Chapter 01
    00:04:30.478                : en:Chapter 02
    00:09:25.523                : en:Chapter 03
    00:13:59.630                : en:Chapter 04
    00:18:56.009                : en:Chapter 05
    00:24:26.756                : en:Chapter 06
    00:31:15.957                : en:Chapter 07
    00:36:26.434                : en:Chapter 08
    00:42:17.034                : en:Chapter 09
    00:47:37.312                : en:Chapter 10
    00:52:22.139                : en:Chapter 11
    00:58:59.244                : en:Chapter 12
    01:04:31.492                : en:Chapter 13
    01:08:52.128                : en:Chapter 14
    01:13:46.755                : en:Chapter 15
    01:20:08.553                : en:Chapter 16

  • Peso: 19.0 GiB

Sinopsis

En esta nueva historia, Selene tendrá que luchar tanto con el clan de los Lycans como contra los vampiros que la traicionaron. Con David y su padre Thomas como sus únicos aliados, deberá detener la eterna guerra entre lycans y vampiros, aunque esto signifique que tenga que hacer el último sacrifcio.

Ficha técnica

Video trailer de la película

Enlaces de descarga

Rip de Bluray

Descargar Underworld Blood Wars (2016) REMUX 1080p Latino – CMHDD




Aportes de DPeliculasHDmega la pass es:dpeliculashdmega.org Aportes de CinemaniaHD la pass es:cinemaniahdd.com
Guardado en : Acción , Drama , Fantasía , Remux , Terror

Películas relacionadas

descargar Underworld Blood Wars (2016) REMUX 1080p Latino – CMHDD Full 1080p 1080p gratis, Underworld Blood Wars (2016) REMUX 1080p Latino – CMHDD Full 1080p mega 1 link, Underworld Blood Wars (2016) REMUX 1080p Latino – CMHDD Full 1080p pelicula completa, descargar Underworld Blood Wars (2016) REMUX 1080p Latino – CMHDD Full 1080p gratis en mega.

Underworld Blood Wars (2016) REMUX 1080p Latino – CMHDD pelicula full hd, Underworld Blood Wars (2016) REMUX 1080p Latino – CMHDD mega latino, Underworld Blood Wars (2016) REMUX 1080p Latino – CMHDD 4k latino, Underworld Blood Wars (2016) REMUX 1080p Latino – CMHDD pelicula completa, Underworld Blood Wars (2016) REMUX 1080p Latino – CMHDD descargar gratis, descargar Underworld Blood Wars (2016) REMUX 1080p Latino – CMHDD pelicula latino, Underworld Blood Wars (2016) REMUX 1080p Latino – CMHDD 1 link mega, Underworld Blood Wars (2016) REMUX 1080p Latino – CMHDD 1 link google drive, Underworld Blood Wars (2016) REMUX 1080p Latino – CMHDD hd 1080p latino.
Comentarios 1
  • ocpgaiden - 02 junio, 2020

    Gracias por la coleccion de Underworld Remux y googledrive, saludos