×

¿Problemas para descargar con Mozilla, EDGE? Deshabilita la opción "Abrir vinculos en una pestaña nueva" tal como lo muestra ésta imagen.

Underworld Awakening (2012) REMUX 1080p Latino – CMHDD

388 vistas

Información de Underworld Awakening (2012) REMUX 1080p Latino – CMHDD

Datos de la película

  • Calidad: Full 1080p
  • Audio: Se especifica abajo de la Sinopsis
  • Subtitulos: Español Latino SRT- FORZADOS SRT
  • Resolución: 1920x1080p
  • Formato: MKV
  • Codec: H.264
  • Encoder: Dracarys
  • Mediainfo: Clic para Mostrar Datos Ver
  • Format                      : Matroska
    Format version              : Version 4
    File size                   : 17.0 GiB
    Duration                    : 1 h 28 min
    Overall bit rate mode       : Variable
    Overall bit rate            : 27.5 Mb/s
    Movie name                  : Underworld Awakening (2012) REMUX 1080p Latino - CMHDD
    Encoded date                : UTC 2020-05-22 02:01:08
    Writing application         : mkvmerge v46.0.0 ('No Deeper Escape') 64-bit
    Writing library             : libebml v1.3.10 + libmatroska v1.5.2

    Video
    ID                          : 1
    Format                      : AVC
    Format/Info                 : Advanced Video Codec
    Format profile              : High@L4.1
    Format settings             : CABAC / 2 Ref Frames
    Format settings, CABAC      : Yes
    Format settings, Reference  : 2 frames
    Codec ID                    : V_MPEG4/ISO/AVC
    Duration                    : 1 h 28 min
    Bit rate mode               : Variable
    Bit rate                    : 24.0 Mb/s
    Width                       : 1 920 pixels
    Height                      : 1 080 pixels
    Display aspect ratio        : 16:9
    Frame rate mode             : Constant
    Frame rate                  : 23.976 (24000/1001) FPS
    Color space                 : YUV
    Chroma subsampling          : 4:2:0
    Bit depth                   : 8 bits
    Scan type                   : Progressive
    Bits/(Pixel*Frame)          : 0.482
    Stream size                 : 14.8 GiB (87%)
    Language                    : English
    Default                     : Yes
    Forced                      : No

    Audio #1
    ID                          : 2
    Format                      : E-AC-3
    Format/Info                 : Enhanced AC-3
    Commercial name             : Dolby Digital Plus
    Codec ID                    : A_EAC3
    Duration                    : 1 h 28 min
    Bit rate mode               : Constant
    Bit rate                    : 640 kb/s
    Channel(s)                  : 6 channels
    Channel layout              : L R C LFE Ls Rs
    Sampling rate               : 48.0 kHz
    Frame rate                  : 31.250 FPS (1536 SPF)
    Compression mode            : Lossy
    Delay relative to video     : 900 ms
    Stream size                 : 405 MiB (2%)
    Language                    : Spanish
    Service kind                : Complete Main
    Default                     : Yes
    Forced                      : No

    Audio #2
    ID                          : 3
    Format                      : DTS XLL
    Format/Info                 : Digital Theater Systems
    Commercial name             : DTS-HD Master Audio
    Codec ID                    : A_DTS
    Duration                    : 1 h 28 min
    Bit rate mode               : Variable
    Bit rate                    : 2 927 kb/s
    Channel(s)                  : 8 channels
    Channel layout              : C L R LFE Lb Rb Lss Rss
    Sampling rate               : 48.0 kHz
    Frame rate                  : 93.750 FPS (512 SPF)
    Bit depth                   : 16 bits
    Compression mode            : Lossless
    Stream size                 : 1.81 GiB (11%)
    Language                    : English
    Default                     : No
    Forced                      : No

    Text #1
    ID                          : 4
    Format                      : UTF-8
    Codec ID                    : S_TEXT/UTF8
    Codec ID/Info               : UTF-8 Plain Text
    Duration                    : 12 s 346 ms
    Bit rate                    : 90 b/s
    Count of elements           : 6
    Stream size                 : 139 Bytes (0%)
    Title                       : SRT-Forzados
    Language                    : Spanish
    Default                     : Yes
    Forced                      : No

    Text #2
    ID                          : 5
    Format                      : UTF-8
    Codec ID                    : S_TEXT/UTF8
    Codec ID/Info               : UTF-8 Plain Text
    Duration                    : 1 h 27 min
    Bit rate                    : 30 b/s
    Count of elements           : 718
    Stream size                 : 19.8 KiB (0%)
    Title                       : SRT-Completos
    Language                    : Spanish
    Default                     : No
    Forced                      : No

    Text #3
    ID                          : 6
    Format                      : PGS
    Muxing mode                 : zlib
    Codec ID                    : S_HDMV/PGS
    Codec ID/Info               : Picture based subtitle format used on BDs/HD-DVDs
    Duration                    : 1 h 27 min
    Bit rate                    : 17.7 kb/s
    Count of elements           : 1436
    Stream size                 : 11.1 MiB (0%)
    Title                       : PGS-Completos
    Language                    : Spanish
    Default                     : No
    Forced                      : No

    Menu
    00:00:00.000                : en:00:00:00.000
    00:04:26.057                : en:00:04:26.057
    00:07:45.340                : en:00:07:45.340
    00:16:20.187                : en:00:16:20.187
    00:21:11.812                : en:00:21:11.812
    00:24:49.988                : en:00:24:49.988
    00:30:29.828                : en:00:30:29.828
    00:35:31.754                : en:00:35:31.754
    00:40:04.944                : en:00:40:04.944
    00:45:23.929                : en:00:45:23.929
    00:52:30.731                : en:00:52:30.731
    00:57:21.563                : en:00:57:21.563
    01:02:53.937                : en:01:02:53.937
    01:07:43.726                : en:01:07:43.726
    01:12:18.501                : en:01:12:18.501
    01:16:41.430                : en:01:16:41.430

  • Peso: 17.0 GiB

Sinopsis

Quince años han pasado desde que Selene y su amante Michael, híbrido entre humano y licántropo, derrotaran al Vampiro Mayor Marcus en Underworld Evolution. En esos años la humanidad ha descubierto la existencia tanto del clan de los vampiros como del de los licántropos y se ha lanzado a una lucha encarnizada para erradicar ambas especies. Selene, capturada durante el genocidio, se despierta después de más de una década y se da cuenta de que se encuentra cautiva en un laboratorio herméticamente cerrado en Antigen, una poderosa corporación biotecnológica que se dedica a desarrollar la vacuna en contra de los virus que han creado a vampiros y licántropos. Selene se siente destrozada cuando descubre que Michael está muerto, pero su dolor es eclipsado por el descubrimiento de que mientras se hallaba en estado de criogenización ha dado a luz a la hija de ambos, Eve.

 

Latino: E-AC3 5.1  –  Ingles: DTS-HD MA 5.1

Ficha técnica

Video trailer de la película

Enlaces de descarga

Rip de Bluray

Descargar Underworld Awakening (2012) REMUX 1080p Latino – CMHDD




Aportes de DPeliculasHDmega la pass es:dpeliculashdmega.org Aportes de CinemaniaHD la pass es:cinemaniahdd.com
Guardado en : Acción , Fantasía , Remux , Terror

Películas relacionadas

  • El Ultimo Juego (2021) WEB-DL 1080p Latino

    El Ultimo Juego (2021) WEB-DL 1080p Latino

    2021
    El Ultimo Juego (2021) WEB-DL 1080p Latino

    1h 21m 2021

    Descargar El Ultimo Juego (2021) WEB-DL 1080p Latino. 6 extraños se despiertan dentro de una habitación...

    Director: John David Moffat IV

    Género: Drama

    Actores: Yasmin Irvine

  • DC Liga De Supermascotas (2022) HD 1080p Latino

    DC Liga De Supermascotas (2022) HD 1080p Latino

    2022
    DC Liga De Supermascotas (2022) HD 1080p Latino

    1h 45m 2022

    Descargar DC Liga De Supermascotas (2022) HD 1080p Latino. Krypto el Superperro y Superman son amigos...

    Director: Sam Levine

    Género: Acción

    Actores: Yvette Nicole Brown

  • Invitacion Al Infierno (2022) MA WEB-DL 1080p Latino

    Invitacion Al Infierno (2022) MA WEB-DL 1080p Latino

    2022
    Invitacion Al Infierno (2022) MA WEB-DL 1080p Latino

    1h 45m 2022

    Descargar Invitacion Al Infierno (2022) MA WEB-DL 1080p Latino. Tras la muerte de su madre y quedarse...

    Director: Jessica M. Thompson

    Género: Suspenso

    Actores: Virág Bárány

  • Tremors (1990) REMUX 4K HDR Latino – CMHDD

    Tremors (1990) REMUX 4K HDR Latino – CMHDD

    1990
    Tremors (1990) REMUX 4K HDR Latino – CMHDD

    1h 35m 1990

    En Perfección, un pequeño pueblo al borde del desierto de Nevada, algo parece suceder debajo de la...

    Director: Susan Bierbaum

    Género: Acción

    Actores: Victor Wong

descargar Underworld Awakening (2012) REMUX 1080p Latino – CMHDD Full 1080p 1080p gratis, Underworld Awakening (2012) REMUX 1080p Latino – CMHDD Full 1080p mega 1 link, Underworld Awakening (2012) REMUX 1080p Latino – CMHDD Full 1080p pelicula completa, descargar Underworld Awakening (2012) REMUX 1080p Latino – CMHDD Full 1080p gratis en mega.

Underworld Awakening (2012) REMUX 1080p Latino – CMHDD pelicula full hd, Underworld Awakening (2012) REMUX 1080p Latino – CMHDD mega latino, Underworld Awakening (2012) REMUX 1080p Latino – CMHDD 4k latino, Underworld Awakening (2012) REMUX 1080p Latino – CMHDD pelicula completa, Underworld Awakening (2012) REMUX 1080p Latino – CMHDD descargar gratis, descargar Underworld Awakening (2012) REMUX 1080p Latino – CMHDD pelicula latino, Underworld Awakening (2012) REMUX 1080p Latino – CMHDD 1 link mega, Underworld Awakening (2012) REMUX 1080p Latino – CMHDD 1 link google drive, Underworld Awakening (2012) REMUX 1080p Latino – CMHDD hd 1080p latino.
Comentarios 1
  • ocpgaiden - 02 junio, 2020

    Gracias por Underworld El despertar, saludos