Underworld (2003) [Extended Cut] REMUX Latino – CMHDD

65 vistas
1 estrella2 estrellas3 estrellas4 estrellas5 estrellas (1 votos, promedio: 5,00 de 5)
Cargando…

Información de Underworld (2003) [Extended Cut] REMUX Latino – CMHDD

Datos de la película

  • Calidad: Full 1080p
  • Audio: Se especifica abajo de la Sinopsis
  • Subtitulos: Español Latino SRT
  • Resolución: 1920x1080p
  • Formato: MKV
  • Codec: H.264
  • Encoder: Dracarys
  • Mediainfo: Clic para Mostrar Datos Ver
  • Format                      : Matroska
    Format version              : Version 4
    File size                   : 26.0 GiB
    Duration                    : 2 h 13 min
    Overall bit rate mode       : Variable
    Overall bit rate            : 27.8 Mb/s
    Movie name                  : Underworld (2003) [Extended Cut] REMUX Latino - CMHDD
    Encoded date                : UTC 2020-05-22 01:28:15
    Writing application         : mkvmerge v46.0.0 ('No Deeper Escape') 64-bit
    Writing library             : libebml v1.3.10 + libmatroska v1.5.2

    Video
    ID                          : 1
    Format                      : AVC
    Format/Info                 : Advanced Video Codec
    Format profile              : High@L4.1
    Format settings             : CABAC / 2 Ref Frames
    Format settings, CABAC      : Yes
    Format settings, Reference  : 2 frames
    Codec ID                    : V_MPEG4/ISO/AVC
    Duration                    : 2 h 13 min
    Bit rate mode               : Variable
    Bit rate                    : 25.3 Mb/s
    Width                       : 1 920 pixels
    Height                      : 1 080 pixels
    Display aspect ratio        : 16:9
    Frame rate mode             : Constant
    Frame rate                  : 23.976 (24000/1001) FPS
    Color space                 : YUV
    Chroma subsampling          : 4:2:0
    Bit depth                   : 8 bits
    Scan type                   : Progressive
    Bits/(Pixel*Frame)          : 0.508
    Stream size                 : 23.6 GiB (91%)
    Language                    : English
    Default                     : Yes
    Forced                      : No

    Audio #1
    ID                          : 2
    Format                      : E-AC-3
    Format/Info                 : Enhanced AC-3
    Commercial name             : Dolby Digital Plus
    Codec ID                    : A_EAC3
    Duration                    : 2 h 13 min
    Bit rate mode               : Constant
    Bit rate                    : 192 kb/s
    Channel(s)                  : 6 channels
    Channel layout              : L R C LFE Ls Rs
    Sampling rate               : 48.0 kHz
    Frame rate                  : 31.250 FPS (1536 SPF)
    Compression mode            : Lossy
    Delay relative to video     : 900 ms
    Stream size                 : 183 MiB (1%)
    Language                    : Spanish
    Service kind                : Complete Main
    Default                     : Yes
    Forced                      : No

    Audio #2
    ID                          : 3
    Format                      : DTS XLL
    Format/Info                 : Digital Theater Systems
    Commercial name             : DTS-HD Master Audio
    Codec ID                    : A_DTS
    Duration                    : 2 h 13 min
    Bit rate mode               : Variable
    Bit rate                    : 2 368 kb/s
    Channel(s)                  : 6 channels
    Channel layout              : C L R Ls Rs LFE
    Sampling rate               : 48.0 kHz
    Frame rate                  : 93.750 FPS (512 SPF)
    Bit depth                   : 16 bits
    Compression mode            : Lossless
    Stream size                 : 2.21 GiB (9%)
    Language                    : English
    Default                     : No
    Forced                      : No

    Text
    ID                          : 4
    Format                      : UTF-8
    Codec ID                    : S_TEXT/UTF8
    Codec ID/Info               : UTF-8 Plain Text
    Duration                    : 2 h 5 min
    Bit rate                    : 26 b/s
    Count of elements           : 709
    Stream size                 : 23.9 KiB (0%)
    Language                    : Spanish
    Default                     : No
    Forced                      : No

    Menu
    00:00:00.000                : :Capítulo 01
    00:02:45.081                : :Capítulo 02
    00:14:27.408                : :Capítulo 03
    00:25:20.977                : :Capítulo 04
    00:30:42.006                : :Capítulo 05
    00:37:12.521                : :Capítulo 06
    00:44:40.260                : :Capítulo 07
    00:56:14.579                : :Capítulo 08
    01:00:25.246                : :Capítulo 09
    01:09:04.431                : :Capítulo 10
    01:16:22.536                : :Capítulo 11
    01:24:56.174                : :Capítulo 12
    01:34:21.822                : :Capítulo 13
    01:42:44.658                : :Capítulo 14
    01:49:43.702                : :Capítulo 15
    01:59:00.591                : :Capítulo 16

  • Peso: 26.0 GiB

Sinopsis

Durante siglos, dos razas han ido evolucionando en las profundidades de la Tierra: los aristocráticos y sofisticados vampiros y los brutales hombres-lobo (Lycans), cuya existencia siempre había formado parte del mundo de los mitos y las leyendas. Estas razas nocturnas son enemigas mortales y están condenadas a vivir en perpetua guerra hasta que sólo una de ellas sobreviva. En medio de este conflicto ancestral, una Guerrera Vampiro, Selene, descubre una conspiración de los Lycan para secuestrar a Michael, un joven médico. Después de seguirlo por toda la ciudad, Selene entabla una insólita relación con él, y cuando los Lycans se deciden a atacar, se interpone entre ellos y el médico. Mientras intenta salvar a Michael, descubre un plan de los Lycans para crear nuevas criaturas que combinen los poderes de ambas razas y carezcan de sus debilidades. Este proyecto, de hacerse realidad, favorecería a los Hombres-lobo.

 

 

Latino: E-AC3 5.1  –  Ingles: DTS-HD MA 5.1

Ficha técnica

Video trailer de la película

Enlaces de descarga

Rip de Bluray

Descargar Underworld (2003) [Extended Cut] REMUX Latino – CMHDD




Aportes de DPeliculasHDmega la pass es:dpeliculashdmega.org Aportes de CinemaniaHD la pass es:cinemaniahdd.com
Guardado en : Acción , Fantasía , Remux , Suspenso

Películas relacionadas

Comentarios 3
  • german - 05 junio, 2020

    no se puede descargar por ningún link

    • Dracarys - 05 junio, 2020

      los links estan bien…

  • ocpgaiden - 02 junio, 2020

    Gracias por Underworld extendida remux con audio DTS-HD, saludos