×

¿Problemas para descargar con Mozilla, EDGE? Deshabilita la opción "Abrir vinculos en una pestaña nueva" tal como lo muestra ésta imagen.

Underworld (2003) [Extended Cut] HD Latino – CMHDD

396 vistas

Información de Underworld (2003) [Extended Cut] HD Latino – CMHDD

Datos de la película

  • Calidad: Full 1080p
  • Audio: Se especifica abajo de la Sinopsis
  • Subtitulos: Español Latino SRT
  • Resolución: 1920x812p
  • Formato: MKV
  • Codec: H.264
  • Encoder: Dracarys
  • Mediainfo: Clic para Mostrar Datos Ver
  • Format                      : Matroska
    Format version              : Version 4
    File size                   : 3.91 GiB
    Duration                    : 2 h 13 min
    Overall bit rate            : 4 190 kb/s
    Movie name                  : Underworld (2003) [Extended Cut] HD Latino - CMHDD
    Encoded date                : UTC 2020-05-22 01:20:51
    Writing application         : mkvmerge v46.0.0 ('No Deeper Escape') 64-bit
    Writing library             : libebml v1.3.10 + libmatroska v1.5.2

    Video
    ID                          : 1
    Format                      : AVC
    Format/Info                 : Advanced Video Codec
    Format profile              : High@L4.1
    Format settings             : CABAC / 5 Ref Frames
    Format settings, CABAC      : Yes
    Format settings, Reference  : 5 frames
    Codec ID                    : V_MPEG4/ISO/AVC
    Duration                    : 2 h 13 min
    Bit rate                    : 3 500 kb/s
    Width                       : 1 916 pixels
    Height                      : 812 pixels
    Display aspect ratio        : 2.35:1
    Frame rate mode             : Constant
    Frame rate                  : 23.976 (24000/1001) FPS
    Color space                 : YUV
    Chroma subsampling          : 4:2:0
    Bit depth                   : 8 bits
    Scan type                   : Progressive
    Bits/(Pixel*Frame)          : 0.094
    Stream size                 : 3.13 GiB (80%)
    Writing library             : x264 core 157 r2935 545de2f
    Encoding settings           : cabac=1 / ref=5 / deblock=1:0:0 / analyse=0x3:0x113 / me=hex / subme=8 / psy=1 / psy_rd=1.00:0.00 / mixed_ref=1 / me_range=16 / chroma_me=1 / trellis=2 / 8x8dct=1 / cqm=0 / deadzone=21,11 / fast_pskip=1 / chroma_qp_offset=-2 / threads=24 / lookahead_threads=4 / sliced_threads=0 / nr=0 / decimate=1 / interlaced=0 / bluray_compat=0 / constrained_intra=0 / bframes=3 / b_pyramid=2 / b_adapt=1 / b_bias=0 / direct=3 / weightb=1 / open_gop=0 / weightp=2 / keyint=240 / keyint_min=24 / scenecut=40 / intra_refresh=0 / rc_lookahead=50 / rc=abr / mbtree=1 / bitrate=3500 / ratetol=1.0 / qcomp=0.60 / qpmin=0 / qpmax=69 / qpstep=4 / vbv_maxrate=62500 / vbv_bufsize=78125 / nal_hrd=none / filler=0 / ip_ratio=1.40 / aq=1:1.00
    Default                     : Yes
    Forced                      : No
    Color range                 : Limited
    Color primaries             : BT.709
    Transfer characteristics    : BT.709
    Matrix coefficients         : BT.709

    Audio #1
    ID                          : 2
    Format                      : E-AC-3
    Format/Info                 : Enhanced AC-3
    Commercial name             : Dolby Digital Plus
    Codec ID                    : A_EAC3
    Duration                    : 2 h 13 min
    Bit rate mode               : Constant
    Bit rate                    : 192 kb/s
    Channel(s)                  : 6 channels
    Channel layout              : L R C LFE Ls Rs
    Sampling rate               : 48.0 kHz
    Frame rate                  : 31.250 FPS (1536 SPF)
    Compression mode            : Lossy
    Delay relative to video     : 900 ms
    Stream size                 : 183 MiB (5%)
    Language                    : Spanish
    Service kind                : Complete Main
    Default                     : Yes
    Forced                      : No

    Audio #2
    ID                          : 3
    Format                      : AC-3
    Format/Info                 : Audio Coding 3
    Commercial name             : Dolby Digital
    Codec ID                    : A_AC3
    Duration                    : 2 h 13 min
    Bit rate mode               : Constant
    Bit rate                    : 640 kb/s
    Channel(s)                  : 6 channels
    Channel layout              : L R C LFE Ls Rs
    Sampling rate               : 48.0 kHz
    Frame rate                  : 31.250 FPS (1536 SPF)
    Compression mode            : Lossy
    Stream size                 : 612 MiB (15%)
    Language                    : English
    Service kind                : Complete Main
    Default                     : No
    Forced                      : No

    Text
    ID                          : 4
    Format                      : UTF-8
    Codec ID                    : S_TEXT/UTF8
    Codec ID/Info               : UTF-8 Plain Text
    Duration                    : 2 h 5 min
    Bit rate                    : 26 b/s
    Count of elements           : 709
    Stream size                 : 23.9 KiB (0%)
    Language                    : Spanish
    Default                     : No
    Forced                      : No

    Menu
    00:00:00.000                : :Capítulo 01
    00:02:45.082                : :Capítulo 02
    00:14:27.408                : :Capítulo 03
    00:25:20.978                : :Capítulo 04
    00:30:42.007                : :Capítulo 05
    00:37:12.522                : :Capítulo 06
    00:44:40.261                : :Capítulo 07
    00:56:14.580                : :Capítulo 08
    01:00:25.288                : :Capítulo 09
    01:09:04.432                : :Capítulo 10
    01:16:22.536                : :Capítulo 11
    01:24:56.174                : :Capítulo 12
    01:34:21.823                : :Capítulo 13
    01:42:44.659                : :Capítulo 14
    01:49:43.702                : :Capítulo 15
    01:59:00.592                : :Capítulo 16

  • Peso: 3.91 GiB

Sinopsis

Durante siglos, dos razas han ido evolucionando en las profundidades de la Tierra: los aristocráticos y sofisticados vampiros y los brutales hombres-lobo (Lycans), cuya existencia siempre había formado parte del mundo de los mitos y las leyendas. Estas razas nocturnas son enemigas mortales y están condenadas a vivir en perpetua guerra hasta que sólo una de ellas sobreviva. En medio de este conflicto ancestral, una Guerrera Vampiro, Selene, descubre una conspiración de los Lycan para secuestrar a Michael, un joven médico. Después de seguirlo por toda la ciudad, Selene entabla una insólita relación con él, y cuando los Lycans se deciden a atacar, se interpone entre ellos y el médico. Mientras intenta salvar a Michael, descubre un plan de los Lycans para crear nuevas criaturas que combinen los poderes de ambas razas y carezcan de sus debilidades. Este proyecto, de hacerse realidad, favorecería a los Hombres-lobo.

 

Latino: E-AC3 5.1  –  Ingles: AC3 5.1

Ficha técnica

Video trailer de la película

Enlaces de descarga

Rip de Bluray

Descargar Underworld (2003) [Extended Cut] HD Latino – CMHDD




Aportes de DPeliculasHDmega la pass es:dpeliculashdmega.org Aportes de CinemaniaHD la pass es:cinemaniahdd.com
Guardado en : Acción , Fantasía , HD 1080p , Suspenso

Películas relacionadas

  • Zola (2020) HD 1080p Latino

    Zola (2020) HD 1080p Latino

    2020
    Zola (2020) HD 1080p Latino

    1h 26m 2020

    Descargar Zola (2020) HD 1080p Latino. Una camarera accede a acompañar a una bailarina exótica, su...

    Director: Sheri Davani

    Género: Comedia

    Actores: Ts Madison

  • Hocus Pocus: Abracadabra (1993) 1080p Latino

    Hocus Pocus: Abracadabra (1993) 1080p Latino

    1993
    Hocus Pocus: Abracadabra (1993) 1080p Latino

    1h 36m 1993

    Descargar Hocus Pocus: Abracadabra (1993) 1080p Latino. Tres brujas del siglo XII son invocadas durante...

    Director: Kenny Ortega

    Género: Comedia

    Actores: Vinessa Shaw

  • Hocus Pocus: Abracadabra (1993) REMUX 1080p Latino

    Hocus Pocus: Abracadabra (1993) REMUX 1080p Latino

    1993
    Hocus Pocus: Abracadabra (1993) REMUX 1080p Latino

    1h 36m 1993

    Descargar Hocus Pocus: Abracadabra (1993) REMUX 1080p Latino. Tres brujas del siglo XII son invocadas...

    Director: Kenny Ortega

    Género: Comedia

    Actores: Vinessa Shaw

descargar Underworld (2003) [Extended Cut] HD Latino – CMHDD Full 1080p 1080p gratis, Underworld (2003) [Extended Cut] HD Latino – CMHDD Full 1080p mega 1 link, Underworld (2003) [Extended Cut] HD Latino – CMHDD Full 1080p pelicula completa, descargar Underworld (2003) [Extended Cut] HD Latino – CMHDD Full 1080p gratis en mega.

Underworld (2003) [Extended Cut] HD Latino – CMHDD pelicula full hd, Underworld (2003) [Extended Cut] HD Latino – CMHDD mega latino, Underworld (2003) [Extended Cut] HD Latino – CMHDD 4k latino, Underworld (2003) [Extended Cut] HD Latino – CMHDD pelicula completa, Underworld (2003) [Extended Cut] HD Latino – CMHDD descargar gratis, descargar Underworld (2003) [Extended Cut] HD Latino – CMHDD pelicula latino, Underworld (2003) [Extended Cut] HD Latino – CMHDD 1 link mega, Underworld (2003) [Extended Cut] HD Latino – CMHDD 1 link google drive, Underworld (2003) [Extended Cut] HD Latino – CMHDD hd 1080p latino.
Comentarios 0