×

¿Problemas para descargar con Mozilla, EDGE? Deshabilita la opción "Abrir vinculos en una pestaña nueva" tal como lo muestra ésta imagen.

Amenaza en lo profundo (2020) REMUX 1080p Latino

995 vistas

Información de Amenaza en lo profundo (2020) REMUX 1080p Latino

Datos de la película

  • Calidad: Full 1080p
  • Audio: Español Latino AC3 5.1 BLURAY - Ingles DTS-HD Master 7.1 BLURAY
  • Subtitulos: Español Latino PGS - Ingles PGS
  • Resolución: 1920x1080p
  • Formato: MKV
  • Codec: H.264
  • Encoder: Melkor
  • Mediainfo: Clic para Mostrar Datos Ver
  • Amenaza En Lo Profundo (2020) REMUX 1080p Latino.mkv
    Format                      : Matroska
    Format version              : Version 4
    File size                   : 21.2 GiB
    Duration                    : 1 h 34 min
    Overall bit rate mode       : Variable
    Overall bit rate            : 32.0 Mb/s
    Movie name                  : Underwater (2020) CinemaniaHDD.Net
    Encoded date                : UTC 2020-04-02 08:14:37
    Writing application         : mkvmerge v42.0.0 ('Overtime') 64-bit
    Writing library             : libebml v1.3.10 + libmatroska v1.5.2
    Attachments                 : CINEMANIAHD.png

    Video
    ID                          : 1
    Format                      : AVC
    Format/Info                 : Advanced Video Codec
    Format profile              : High@L4.1
    Format settings             : CABAC / 2 Ref Frames
    Format settings, CABAC      : Yes
    Format settings, ReFrames   : 2 frames
    Codec ID                    : V_MPEG4/ISO/AVC
    Duration                    : 1 h 34 min
    Bit rate mode               : Variable
    Bit rate                    : 26.4 Mb/s
    Width                       : 1 920 pixels
    Height                      : 1 080 pixels
    Display aspect ratio        : 16:9
    Frame rate mode             : Constant
    Frame rate                  : 23.976 (24000/1001) FPS
    Color space                 : YUV
    Chroma subsampling          : 4:2:0
    Bit depth                   : 8 bits
    Scan type                   : Progressive
    Bits/(Pixel*Frame)          : 0.531
    Stream size                 : 17.5 GiB (82%)
    Title                       : REMUX 1080p [CinemaniaHDD]
    Default                     : Yes
    Forced                      : No

    Audio #1
    ID                          : 2
    Format                      : AC-3
    Format/Info                 : Audio Coding 3
    Commercial name             : Dolby Digital
    Codec ID                    : A_AC3
    Duration                    : 1 h 34 min
    Bit rate mode               : Constant
    Bit rate                    : 448 kb/s
    Channel(s)                  : 6 channels
    Channel layout              : L R C LFE Ls Rs
    Sampling rate               : 48.0 kHz
    Frame rate                  : 31.250 FPS (1536 SPF)
    Bit depth                   : 16 bits
    Compression mode            : Lossy
    Delay relative to video     : 28 ms
    Stream size                 : 304 MiB (1%)
    Title                       : Español Latino [CinemaniaHDD]
    Language                    : Spanish
    Service kind                : Complete Main
    Default                     : Yes
    Forced                      : No

    Audio #2
    ID                          : 3
    Format                      : DTS XLL
    Format/Info                 : Digital Theater Systems
    Commercial name             : DTS-HD Master Audio
    Codec ID                    : A_DTS
    Duration                    : 1 h 34 min
    Bit rate mode               : Variable
    Bit rate                    : 5 157 kb/s
    Channel(s)                  : 8 channels
    Channel layout              : C L R LFE Lb Rb Lss Rss
    Sampling rate               : 48.0 kHz
    Frame rate                  : 93.750 FPS (512 SPF)
    Bit depth                   : 24 bits
    Compression mode            : Lossless
    Stream size                 : 3.42 GiB (16%)
    Title                       : Ingles [CinemaniaHDD]
    Language                    : English
    Default                     : No
    Forced                      : No

    Text #1
    ID                          : 4
    Format                      : PGS
    Muxing mode                 : zlib
    Codec ID                    : S_HDMV/PGS
    Codec ID/Info               : Picture based subtitle format used on BDs/HD-DVDs
    Duration                    : 1 h 33 min
    Bit rate                    : 2 084 b/s
    Count of elements           : 112
    Stream size                 : 1.40 MiB (0%)
    Title                       : Forzados-PGS [CinemaniaHDD]
    Language                    : Spanish
    Default                     : Yes
    Forced                      : No

    Text #2
    ID                          : 5
    Format                      : PGS
    Muxing mode                 : zlib
    Codec ID                    : S_HDMV/PGS
    Codec ID/Info               : Picture based subtitle format used on BDs/HD-DVDs
    Duration                    : 1 h 33 min
    Bit rate                    : 27.5 kb/s
    Count of elements           : 2284
    Stream size                 : 18.4 MiB (0%)
    Title                       : Español-PGS [CinemaniaHDD]
    Language                    : Spanish
    Default                     : No
    Forced                      : No

    Text #3
    ID                          : 6
    Format                      : PGS
    Muxing mode                 : zlib
    Codec ID                    : S_HDMV/PGS
    Codec ID/Info               : Picture based subtitle format used on BDs/HD-DVDs
    Duration                    : 1 h 34 min
    Bit rate                    : 34.9 kb/s
    Count of elements           : 2708
    Stream size                 : 23.6 MiB (0%)
    Title                       : Ingles-PGS [CinemaniaHDD]
    Language                    : English
    Default                     : No
    Forced                      : No

    Text #4
    ID                          : 7
    Format                      : UTF-8
    Codec ID                    : S_TEXT/UTF8
    Codec ID/Info               : UTF-8 Plain Text
    Duration                    : 1 h 29 min
    Bit rate                    : 2 b/s
    Count of elements           : 55
    Stream size                 : 1.76 KiB (0%)
    Title                       : Forzados-SRT [CinemaniaHDD]
    Language                    : Spanish
    Default                     : No
    Forced                      : No

    Text #5
    ID                          : 8
    Format                      : UTF-8
    Codec ID                    : S_TEXT/UTF8
    Codec ID/Info               : UTF-8 Plain Text
    Duration                    : 1 h 29 min
    Bit rate                    : 44 b/s
    Count of elements           : 1140
    Stream size                 : 29.3 KiB (0%)
    Title                       : Español-SRT [CinemaniaHDD]
    Language                    : Spanish
    Default                     : No
    Forced                      : No

    Menu
    00:00:00.000                : en:Chapter 01
    00:06:17.919                : en:Chapter 02
    00:09:39.704                : en:Chapter 03
    00:13:25.721                : en:Chapter 04
    00:16:22.064                : en:Chapter 05
    00:20:39.947                : en:Chapter 06
    00:22:51.536                : en:Chapter 07
    00:27:11.171                : en:Chapter 08
    00:30:51.140                : en:Chapter 09
    00:34:26.647                : en:Chapter 10
    00:39:25.363                : en:Chapter 11
    00:43:41.785                : en:Chapter 12
    00:48:40.250                : en:Chapter 13
    00:53:57.901                : en:Chapter 14
    00:56:00.899                : en:Chapter 15
    01:01:53.876                : en:Chapter 16
    01:05:26.172                : en:Chapter 17
    01:08:12.755                : en:Chapter 18
    01:13:52.886                : en:Chapter 19
    01:16:04.476                : en:Chapter 20
    01:18:34.960                : en:Chapter 21
    01:21:22.085                : en:Chapter 22
    01:23:04.062                : en:Chapter 23
    01:29:51.636                : en:Chapter 24

  • Peso: 21.2 GiB

Sinopsis

Descargar Amenaza en lo profundo (2020) REMUX 1080p Latino. Una tripulación de seis integrantes queda atrapada en una instalación submarina que se está inundando a gran velocidad como consecuencia de un sismo devastador. Su única oportunidad para sobrevivir es caminar a través del suelo marino hasta una lejana plataforma petrolífera abandonada. Además de los retos físicos que implica el viaje, descubren rápidamente que están siendo cazados por depredadores marinos míticos y monstruosos, dispuestos a matarlos.

Ficha técnica

Video trailer de la película

Enlaces de descarga

Rip de Bluray

Descargar Amenaza en lo profundo (2020) REMUX 1080p Latino




Aportes de DPeliculasHDmega la pass es:dpeliculashdmega.org Aportes de CinemaniaHD la pass es:cinemaniahdd.com

Películas relacionadas

  • El Cuartel Secreto (2022) WEB-DL 4K UHD HDR Latino

    El Cuartel Secreto (2022) WEB-DL 4K UHD HDR Latino

    2022
    El Cuartel Secreto (2022) WEB-DL 4K UHD HDR Latino

    1h 44m 2022

    Descargar El Cuartel Secreto (2022) WEB-DL 4K UHD HDR Latino. Mientras pasan el rato después de la escuela,...

    Director: Henry Joost

    Género: 4K HDR

    Actores: Zeb Slone

  • El Cuartel Secreto (2022) WEB-DL 1080p Latino

    El Cuartel Secreto (2022) WEB-DL 1080p Latino

    2022
    El Cuartel Secreto (2022) WEB-DL 1080p Latino

    1h 44m 2022

    Descargar El Cuartel Secreto (2022) WEB-DL 1080p Latino. Mientras pasan el rato después de la escuela,...

    Director: Henry Joost

    Género: Acción

    Actores: Zeb Slone

  • Men in Black (1997) REMUX 4K HDR Latino – CMHDD

    Men in Black (1997) REMUX 4K HDR Latino – CMHDD

    1997
    Men in Black (1997) REMUX 4K HDR Latino – CMHDD

    1h 34m 1997

    Durante muchos años los extraterrestres han vivido en la Tierra, mezclados con los humanos, sin que...

    Director: Tyrone S. Walker

    Género: Acción

    Actores: Willie C. Carpenter

  • La Máquina infernal (2022) WEB-DL 1080p Latino

    La Máquina infernal (2022) WEB-DL 1080p Latino

    2022
    La Máquina infernal (2022) WEB-DL 1080p Latino

    1h 47m 2022

    Descargar La Máquina infernal (2022) WEB-DL 1080p Latino. Un fan obsesivo saca de su escondite al solitario...

    Director: Andrew Hunt

    Género: Suspenso

    Actores: Rocco Salata

  • Borrego: Sal Del Camino (2022) HD 1080p Latino

    Borrego: Sal Del Camino (2022) HD 1080p Latino

    2022
    Borrego: Sal Del Camino (2022) HD 1080p Latino

    1h 42m 2022

    Descargar Borrego: Sal Del Camino (2022) HD 1080p Latino. Una joven botánica se traslada a un pequeño...

    Director: Jesse Harris

    Género: Crimen

    Actores: Olivia Trujillo

descargar Amenaza en lo profundo (2020) REMUX 1080p Latino Full 1080p 1080p gratis, Amenaza en lo profundo (2020) REMUX 1080p Latino Full 1080p mega 1 link, Amenaza en lo profundo (2020) REMUX 1080p Latino Full 1080p pelicula completa, descargar Amenaza en lo profundo (2020) REMUX 1080p Latino Full 1080p gratis en mega.

Amenaza en lo profundo (2020) REMUX 1080p Latino pelicula full hd, Amenaza en lo profundo (2020) REMUX 1080p Latino mega latino, Amenaza en lo profundo (2020) REMUX 1080p Latino 4k latino, Amenaza en lo profundo (2020) REMUX 1080p Latino pelicula completa, Amenaza en lo profundo (2020) REMUX 1080p Latino descargar gratis, descargar Amenaza en lo profundo (2020) REMUX 1080p Latino pelicula latino, Amenaza en lo profundo (2020) REMUX 1080p Latino 1 link mega, Amenaza en lo profundo (2020) REMUX 1080p Latino 1 link google drive, Amenaza en lo profundo (2020) REMUX 1080p Latino hd 1080p latino.
Comentarios 0