×

¿Problemas para descargar con Mozilla, EDGE? Deshabilita la opción "Abrir vinculos en una pestaña nueva" tal como lo muestra ésta imagen.

Under Wraps 2: Una Momia En Halloween (2022) WEB-DL 1080p Latino

47 vistas

Información de Under Wraps 2: Una Momia En Halloween (2022) WEB-DL 1080p Latino

Datos de la película

  • Calidad: WEBDL
  • Audio: Español Latino AC3 2.0 WEB-DL - Ingles AC3 5.1 WEB-DL
  • Subtitulos: Español Latino SRT- FORZADOS SRT
  • Resolución: 1920x1080p
  • Formato: MKV
  • Codec: H.264
  • Encoder: Melkor
  • Mediainfo: Clic para Mostrar Datos Ver
  • Under Wraps 2 Una Momia En Halloween (2022) WebDL 1080p Latino.mkv
    Format                      : Matroska
    Format version              : Version 4
    File size                   : 4.00 GiB
    Duration                    : 1 h 22 min
    Overall bit rate mode       : Variable
    Overall bit rate            : 6 909 kb/s
    Movie name                  : Under Wraps 2 (2022) CinemaniaHDD.Net
    Encoded date                : UTC 2022-11-28 19:16:53
    Writing application         : mkvmerge v56.1.0 ('My Friend') 64-bit
    Writing library             : libebml v1.4.2 + libmatroska v1.6.4
    Attachments                 : CINEMANIAHD.png

    Video
    ID                          : 1
    Format                      : AVC
    Format/Info                 : Advanced Video Codec
    Format profile              : High@L4
    Format settings             : CABAC / 4 Ref Frames
    Format settings, CABAC      : Yes
    Format settings, Reference  : 4 frames
    Codec ID                    : V_MPEG4/ISO/AVC
    Duration                    : 1 h 22 min
    Bit rate mode               : Variable
    Bit rate                    : 6 395 kb/s
    Maximum bit rate            : 12.7 Mb/s
    Width                       : 1 920 pixels
    Height                      : 1 080 pixels
    Display aspect ratio        : 16:9
    Frame rate mode             : Constant
    Frame rate                  : 23.976 (24000/1001) FPS
    Color space                 : YUV
    Chroma subsampling          : 4:2:0
    Bit depth                   : 8 bits
    Scan type                   : Progressive
    Bits/(Pixel*Frame)          : 0.129
    Stream size                 : 3.70 GiB (93%)
    Title                       : Web HD1080p [CinemaniaHDD]
    Default                     : Yes
    Forced                      : Yes
    Color range                 : Limited
    Color primaries             : BT.709
    Transfer characteristics    : BT.709
    Matrix coefficients         : BT.709

    Audio #1
    ID                          : 2
    Format                      : AC-3
    Format/Info                 : Audio Coding 3
    Commercial name             : Dolby Digital
    Codec ID                    : A_AC3
    Duration                    : 1 h 22 min
    Bit rate mode               : Constant
    Bit rate                    : 256 kb/s
    Channel(s)                  : 2 channels
    Channel layout              : L R
    Sampling rate               : 48.0 kHz
    Frame rate                  : 31.250 FPS (1536 SPF)
    Compression mode            : Lossy
    Delay relative to video     : 21 ms
    Stream size                 : 152 MiB (4%)
    Title                       : Español Latino [CinemaniaHDD]
    Language                    : Spanish
    Service kind                : Complete Main
    Default                     : Yes
    Forced                      : Yes

    Audio #2
    ID                          : 3
    Format                      : E-AC-3
    Format/Info                 : Enhanced AC-3
    Commercial name             : Dolby Digital Plus
    Codec ID                    : A_EAC3
    Duration                    : 1 h 22 min
    Bit rate mode               : Constant
    Bit rate                    : 256 kb/s
    Channel(s)                  : 6 channels
    Channel layout              : L R C LFE Ls Rs
    Sampling rate               : 48.0 kHz
    Frame rate                  : 31.250 FPS (1536 SPF)
    Compression mode            : Lossy
    Stream size                 : 152 MiB (4%)
    Title                       : Ingles [CinemaniaHDD]
    Language                    : English
    Service kind                : Complete Main
    Default                     : No
    Forced                      : No

    Text #1
    ID                          : 4
    Format                      : UTF-8
    Codec ID                    : S_TEXT/UTF8
    Codec ID/Info               : UTF-8 Plain Text
    Duration                    : 1 h 19 min
    Bit rate                    : 1 b/s
    Count of elements           : 41
    Stream size                 : 939 Bytes (0%)
    Title                       : Forzados-SRT [CinemaniaHDD]
    Language                    : Spanish
    Default                     : Yes
    Forced                      : Yes

    Text #2
    ID                          : 5
    Format                      : UTF-8
    Codec ID                    : S_TEXT/UTF8
    Codec ID/Info               : UTF-8 Plain Text
    Duration                    : 1 h 22 min
    Bit rate                    : 63 b/s
    Count of elements           : 1391
    Stream size                 : 38.0 KiB (0%)
    Title                       : Español-SRT [CinemaniaHDD]
    Language                    : Spanish
    Default                     : No
    Forced                      : No

    Text #3
    ID                          : 6
    Format                      : UTF-8
    Codec ID                    : S_TEXT/UTF8
    Codec ID/Info               : UTF-8 Plain Text
    Duration                    : 1 h 22 min
    Bit rate                    : 85 b/s
    Count of elements           : 1566
    Stream size                 : 51.9 KiB (0%)
    Title                       : Ingles-SRT [CinemaniaHDD]
    Language                    : English
    Default                     : No
    Forced                      : No

  • Peso: 4.00 GiB

Sinopsis

Descargar Under Wraps 2: Una Momia En Halloween (2022) WEB-DL 1080p Latino. Amy prepara la boda temática de Halloween para su padre y su prometido Carl cuando ella, Gilbert y Marshall intuyen que su amigo momia, Harold, y su querida Rose podrían estar en peligro.

Ficha técnica

Video trailer de la película

Enlaces de descarga

Rip de Bluray

Descargar Under Wraps 2: Una Momia En Halloween (2022) WEB-DL 1080p Latino




Aportes de DPeliculasHDmega la pass es:dpeliculashdmega.org Aportes de CinemaniaHD la pass es:cinemaniahdd.com
Guardado en : Familia , Fantasía , Película de TV

Películas relacionadas

  • Mi amigo el dragón (2016) Full HD 1080p Latino

    Mi amigo el dragón (2016) Full HD 1080p Latino

    2016
    Mi amigo el dragón (2016) Full HD 1080p Latino

    1h 43m 2016

    Descargar Mi amigo el dragón (2016) Full HD 1080p Latino. Durante años el Sr. Meacham, un viejo tallador...

    Director: Joe Nolan

    Género: Aventura

    Actores: William J. Rawbone

  • Mi amigo el dragón (2016) REMUX 1080p Latino

    Mi amigo el dragón (2016) REMUX 1080p Latino

    2016
    Mi amigo el dragón (2016) REMUX 1080p Latino

    1h 43m 2016

    Descargar Mi amigo el dragón (2016) REMUX 1080p Latino. Durante años el Sr. Meacham, un viejo tallador...

    Director: Joe Nolan

    Género: Aventura

    Actores: William J. Rawbone

  • Desde mi cielo (2009) REMUX 1080p Latino

    Desde mi cielo (2009) REMUX 1080p Latino

    2009
    Desde mi cielo (2009) REMUX 1080p Latino

    2h 15m 2009

    Descargar Desde mi cielo (2009) REMUX 1080p Latino. La historia gira en torno a Susie Salmon, que fue...

    Director: Peter Jackson

    Género: Drama

    Actores: William Zielinski

  • Black Panther (2018) IMAX Full HD 1080p Latino

    Black Panther (2018) IMAX Full HD 1080p Latino

    2018
    Black Panther (2018) IMAX Full HD 1080p Latino

    2 h 14 min 2018

    Descargar Black Panther (2018) IMAX Full HD 1080p Latino. Después de los acontecimientos de "Capitán...

    Director: Ryan Coogler

    Género: Acción

    Actores: Zola Williams

descargar Under Wraps 2: Una Momia En Halloween (2022) WEB-DL 1080p Latino WEBDL 1080p gratis, Under Wraps 2: Una Momia En Halloween (2022) WEB-DL 1080p Latino WEBDL mega 1 link, Under Wraps 2: Una Momia En Halloween (2022) WEB-DL 1080p Latino WEBDL pelicula completa, descargar Under Wraps 2: Una Momia En Halloween (2022) WEB-DL 1080p Latino WEBDL gratis en mega.

Under Wraps 2: Una Momia En Halloween (2022) WEB-DL 1080p Latino pelicula full hd, Under Wraps 2: Una Momia En Halloween (2022) WEB-DL 1080p Latino mega latino, Under Wraps 2: Una Momia En Halloween (2022) WEB-DL 1080p Latino 4k latino, Under Wraps 2: Una Momia En Halloween (2022) WEB-DL 1080p Latino pelicula completa, Under Wraps 2: Una Momia En Halloween (2022) WEB-DL 1080p Latino descargar gratis, descargar Under Wraps 2: Una Momia En Halloween (2022) WEB-DL 1080p Latino pelicula latino, Under Wraps 2: Una Momia En Halloween (2022) WEB-DL 1080p Latino 1 link mega, Under Wraps 2: Una Momia En Halloween (2022) WEB-DL 1080p Latino 1 link google drive, Under Wraps 2: Una Momia En Halloween (2022) WEB-DL 1080p Latino hd 1080p latino.
Comentarios 0