Under the Volcano (2021) WEB-DL 1080p Latino

109 vistas
1 estrella2 estrellas3 estrellas4 estrellas5 estrellas (3 votos, promedio: 5,00 de 5)
Cargando...

Información de Under the Volcano (2021) WEB-DL 1080p Latino

Datos de la película

  • Calidad: 1080p
  • Audio: Español Latino AC3 2.0 WEB-DL - Ingles AC3 5.1 WEB-DL
  • Subtitulos: Español Latino SRT- FORZADOS SRT
  • Resolución: 1916x1076
  • Formato: MKV
  • Codec: H.264
  • Encoder: cinemaniahdd
  • Mediainfo: Clic para Mostrar Datos Ver
  • Under the Volcano (2021) WEB-DL 1080p Latino [CNMNHDD].mkv
    Format                      : Matroska
    Format version              : Version 4
    File size                   : 4.93 GiB
    Duration                    : 1 h 35 min
    Overall bit rate            : 7 361 kb/s
    Movie name                  : Under the Volcano (2021) - CinemaniaHDD.Net
    Encoded date                : UTC 2021-09-21 23:59:29
    Writing application         : mkvmerge v56.1.0 ('My Friend') 64-bit
    Writing library             : libebml v1.4.2 + libmatroska v1.6.4

    Video
    ID                          : 1
    Format                      : AVC
    Format/Info                 : Advanced Video Codec
    Format profile              : High@L4
    Format settings             : CABAC / 4 Ref Frames
    Format settings, CABAC      : Yes
    Format settings, Reference  : 4 frames
    Codec ID                    : V_MPEG4/ISO/AVC
    Duration                    : 1 h 35 min
    Bit rate                    : 6 590 kb/s
    Width                       : 1 916 pixels
    Height                      : 1 076 pixels
    Display aspect ratio        : 16:9
    Frame rate mode             : Constant
    Frame rate                  : 23.976 (24000/1001) FPS
    Color space                 : YUV
    Chroma subsampling          : 4:2:0
    Bit depth                   : 8 bits
    Scan type                   : Progressive
    Bits/(Pixel*Frame)          : 0.133
    Stream size                 : 4.41 GiB (90%)
    Title                       : CinemaniaHDD
    Language                    : English
    Default                     : Yes
    Forced                      : No
    Color range                 : Limited
    Color primaries             : BT.709
    Transfer characteristics    : BT.709
    Matrix coefficients         : BT.709

    Audio #1
    ID                          : 2
    Format                      : AC-3
    Format/Info                 : Audio Coding 3
    Commercial name             : Dolby Digital
    Codec ID                    : A_AC3
    Duration                    : 1 h 35 min
    Bit rate mode               : Constant
    Bit rate                    : 384 kb/s
    Channel(s)                  : 2 channels
    Channel layout              : L R
    Sampling rate               : 48.0 kHz
    Frame rate                  : 31.250 FPS (1536 SPF)
    Compression mode            : Lossy
    Stream size                 : 263 MiB (5%)
    Title                       : Español latino [CinemaniaHDD]
    Language                    : Spanish
    Service kind                : Complete Main
    Default                     : Yes
    Forced                      : No

    Audio #2
    ID                          : 3
    Format                      : AC-3
    Format/Info                 : Audio Coding 3
    Commercial name             : Dolby Digital
    Codec ID                    : A_AC3
    Duration                    : 1 h 35 min
    Bit rate mode               : Constant
    Bit rate                    : 384 kb/s
    Channel(s)                  : 6 channels
    Channel layout              : L R C LFE Ls Rs
    Sampling rate               : 48.0 kHz
    Frame rate                  : 31.250 FPS (1536 SPF)
    Compression mode            : Lossy
    Stream size                 : 263 MiB (5%)
    Title                       : Inglés [CinemaniaHDD]
    Language                    : English
    Service kind                : Complete Main
    Default                     : No
    Forced                      : No

    Text #1
    ID                          : 4
    Format                      : UTF-8
    Codec ID                    : S_TEXT/UTF8
    Codec ID/Info               : UTF-8 Plain Text
    Duration                    : 1 h 29 min
    Bit rate                    : 1 b/s
    Count of elements           : 28
    Stream size                 : 1 008 Bytes (0%)
    Title                       : Forzados [CinemaniaHDD]
    Language                    : Spanish
    Default                     : Yes
    Forced                      : Yes

    Text #2
    ID                          : 5
    Format                      : UTF-8
    Codec ID                    : S_TEXT/UTF8
    Codec ID/Info               : UTF-8 Plain Text
    Duration                    : 1 h 29 min
    Bit rate                    : 88 b/s
    Count of elements           : 1275
    Stream size                 : 57.8 KiB (0%)
    Title                       : Español latino [CinemaniaHDD]
    Language                    : Spanish
    Default                     : No
    Forced                      : No

    Text #3
    ID                          : 6
    Format                      : UTF-8
    Codec ID                    : S_TEXT/UTF8
    Codec ID/Info               : UTF-8 Plain Text
    Duration                    : 1 h 31 min
    Bit rate                    : 106 b/s
    Count of elements           : 1462
    Stream size                 : 71.0 KiB (0%)
    Title                       : Inglés [CinemaniaHDD]
    Language                    : English
    Default                     : No
    Forced                      : No

     

  • Peso: 4.93 GiB

Sinopsis

En una remota isla del Caribe en la década de 1980, a la sombra de un volcán, los artistas más grandes del mundo se sintieron atraídos por este lugar especial, para escapar y forjar la música que definió una era.

Ficha técnica

  • Titulo original: Under the Volcano
  • Fecha de lanzamiento: 20-03-2021 (Australia)
  • Director: Gracie Otto
  • Género: Documental, Música
  • Puntuación: 5.0 3 votos
  • Duración:
    1h 36m

Video trailer de la película

Enlaces de descarga

Rip de Bluray

Descargar Under the Volcano (2021) WEB-DL 1080p Latino




Aportes de DPeliculasHDmega la pass es:dpeliculashdmega.org Aportes de CinemaniaHD la pass es:cinemaniahdd.com
Guardado en : Documental , Música

Películas relacionadas

  • Found (2021) NF WEB-DL 1080p Latino

    Found (2021) NF WEB-DL 1080p Latino

    2021
    Found (2021) NF WEB-DL 1080p Latino

    0.0 1h 37m 2021

    Después de que una prueba de ADN revela sus lazos de parentesco, tres primas adoptadas por familias...

    Director: Amanda Lipitz

    Género: Documental

  • Oliver! (1968) REMUX 4K HDR Latino – CMHDD

    Oliver! (1968) REMUX 4K HDR Latino – CMHDD

    1968
    Oliver! (1968) REMUX 4K HDR Latino – CMHDD

    5.0 2h 24m 1968

    En el siglo XIX, Oliver Twist (Mark Lester), un pobre niño inglés, escapa de un orfanato y llega a...

    Director: Ray Corbett

    Género: Drama

    Actores: Wensley Pithey

  • The Band Wagon (1953) REMUX 1080p Latino – CMHDD

    The Band Wagon (1953) REMUX 1080p Latino – CMHDD

    1953
    The Band Wagon (1953) REMUX 1080p Latino – CMHDD

    0.0 1h 52m 1953

    Un cantante y bailarín de éxito, a pesar de que atraviesa una etapa muy crítica, está decidido a...

    Director: Vincente Minnelli

    Género: Comedia

    Actores: Thurston Hall

Under the Volcano (2021) WEB-DL 1080p Latino pelicula full hd, Under the Volcano (2021) WEB-DL 1080p Latino mega latino, Under the Volcano (2021) WEB-DL 1080p Latino 4k latino, Under the Volcano (2021) WEB-DL 1080p Latino pelicula completa, Under the Volcano (2021) WEB-DL 1080p Latino descargar gratis, descargar Under the Volcano (2021) WEB-DL 1080p Latino pelicula latino, Under the Volcano (2021) WEB-DL 1080p Latino 1 link mega, Under the Volcano (2021) WEB-DL 1080p Latino 1 link google drive, Under the Volcano (2021) WEB-DL 1080p Latino hd 1080p latino.
Comentarios 1
  • Migue - 21 septiembre, 2021

    ¡Muchísimas gracias!
    Lo estaba esperando <3
    Son los mejores!!!!