Under the Sea (2009) Full 1080p Latino [Documental]

1.643 vistas
1 estrella2 estrellas3 estrellas4 estrellas5 estrellas (3 votos, promedio: 5,00 de 5)
Cargando…

Información de Under the Sea (2009) Full 1080p Latino [Documental]

Datos de la película

  • Calidad: Full 1080p
  • Audio: Español Latino AC3 5.1 BLURAY - Ingles DTS 5.1 BLURAY
  • Subtitulos: Español Latino PGS - Ingles PGS
  • Resolución: 1920x1080p
  • Formato: MKV
  • Codec: H.264
  • Encoder: Dracarys
  • Mediainfo: Clic para Mostrar Datos Ver
  • Format                                   : Matroska
    Format version                           : Version 4 / Version 2
    File size                                : 4.00 GiB
    Duration                                 : 40 min 52 s
    Overall bit rate                         : 14.0 Mb/s
    Encoded date                             : UTC 2018-07-12 03:15:06 / UTC 2018-07-02T07:02:01Z
    Writing application                      : mkvmerge v15.0.0 ('Duel with the Devil') 64-bit
    Writing library                          : libebml v1.3.5 + libmatroska v1.4.5 / Lavf57.7.2

    Video
    ID                                       : 1
    Format                                   : AVC
    Format/Info                              : Advanced Video Codec
    Format profile                           : High@L4.1
    Format settings                          : CABAC / 4 Ref Frames
    Format settings, CABAC                   : Yes
    Format settings, RefFrames               : 4 frames
    Codec ID                                 : V_MPEG4/ISO/AVC
    Duration                                 : 40 min 52 s
    Bit rate                                 : 11.6 Mb/s
    Width                                    : 1 920 pixels
    Height                                   : 1 080 pixels
    Display aspect ratio                     : 16:9
    Frame rate mode                          : Constant
    Frame rate                               : 23.976 (24000/1001) FPS
    Color space                              : YUV
    Chroma subsampling                       : 4:2:0
    Bit depth                                : 8 bits
    Scan type                                : Progressive
    Bits/(Pixel*Frame)                       : 0.233
    Stream size                              : 3.30 GiB (83%)
    Title                                    : Under the Sea 3D 2009
    Writing library                          : x264 core 148 r2708 86b7198
    Encoding settings                        : cabac=1 / ref=4 / deblock=1:0:0 / analyse=0x3:0x133 / me=esa / subme=10 / psy=1 / psy_rd=1.00:0.00 / mixed_ref=1 / me_range=24 / chroma_me=1 / trellis=2 / 8x8dct=1 / cqm=0 / deadzone=21,11 / fast_pskip=1 / chroma_qp_offset=-2 / threads=34 / lookahead_threads=5 / sliced_threads=0 / nr=0 / decimate=1 / interlaced=0 / bluray_compat=0 / constrained_intra=0 / bframes=8 / b_pyramid=2 / b_adapt=2 / b_bias=0 / direct=3 / weightb=1 / open_gop=0 / weightp=2 / keyint=240 / keyint_min=24 / scenecut=40 / intra_refresh=0 / rc_lookahead=60 / rc=crf / mbtree=1 / crf=20.0 / qcomp=0.60 / qpmin=0 / qpmax=69 / qpstep=4 / vbv_maxrate=62500 / vbv_bufsize=78125 / crf_max=0.0 / nal_hrd=none / filler=0 / ip_ratio=1.40 / aq=1:1.00
    Language                                 : English
    Default                                  : Yes
    Forced                                   : No
    Color range                              : Limited
    Color primaries                          : BT.709
    Transfer characteristics                 : BT.709
    Matrix coefficients                      : BT.709
    Statistics Tags Issue                    : mkvmerge v15.0.0 ('Duel with the Devil') 64-bit 2018-07-12 03:15:06 / mkvmerge v15.0.0 ('Duel with the Devil') 64-bit 2018-07-12 03:15:06 / UTC 2018-07-02T07:02:01Z
    FromStats_BitRate                        : 11840846
    FromStats_Duration                       : 00:40:49.280000000
    FromStats_FrameCount                     : 58724
    FromStats_StreamSize                     : 3625193460

    Audio #1
    ID                                       : 2
    Format                                   : AC-3
    Format/Info                              : Audio Coding 3
    Format settings, Endianness              : Big
    Codec ID                                 : A_AC3
    Duration                                 : 40 min 52 s
    Bit rate mode                            : Constant
    Bit rate                                 : 640 kb/s
    Channel(s)                               : 6 channels
    Channel positions                        : Front: L C R, Side: L R, LFE
    Sampling rate                            : 48.0 kHz
    Frame rate                               : 31.250 FPS (1536 SPF)
    Bit depth                                : 16 bits
    Compression mode                         : Lossy
    Stream size                              : 187 MiB (5%)
    Language                                 : Spanish
    Service kind                             : Complete Main
    Default                                  : Yes
    Forced                                   : No
    Statistics Tags Issue                    : mkvmerge v15.0.0 ('Duel with the Devil') 64-bit 2018-07-12 03:15:06 / mkvmerge v15.0.0 ('Duel with the Devil') 64-bit 2018-07-12 03:15:06 / UTC 2018-07-02T07:02:01Z
    FromStats_BitRate                        : 640000
    FromStats_Duration                       : 00:40:52.736000000
    FromStats_FrameCount                     : 76648
    FromStats_StreamSize                     : 196218880

    Audio #2
    ID                                       : 3
    Format                                   : DTS
    Format/Info                              : Digital Theater Systems
    Mode                                     : 16
    Format settings, Endianness              : Big
    Codec ID                                 : A_DTS
    Duration                                 : 40 min 52 s
    Bit rate mode                            : Constant
    Bit rate                                 : 1 509 kb/s
    Channel(s)                               : 6 channels
    Channel positions                        : Front: L C R, Side: L R, LFE
    Sampling rate                            : 48.0 kHz
    Frame rate                               : 93.750 FPS (512 SPF)
    Bit depth                                : 24 bits
    Compression mode                         : Lossy
    Stream size                              : 441 MiB (11%)
    Language                                 : English
    Default                                  : No
    Forced                                   : No
    Statistics Tags Issue                    : mkvmerge v15.0.0 ('Duel with the Devil') 64-bit 2018-07-12 03:15:06 / mkvmerge v15.0.0 ('Duel with the Devil') 64-bit 2018-07-12 03:15:06 / UTC 2018-07-02T07:02:01Z
    FromStats_BitRate                        : 1508999
    FromStats_Duration                       : 00:40:52.715000000
    FromStats_FrameCount                     : 229942
    FromStats_StreamSize                     : 462643304

    Text #1
    ID                                       : 4
    Format                                   : PGS
    Muxing mode                              : zlib
    Codec ID                                 : S_HDMV/PGS
    Codec ID/Info                            : Picture based subtitle format used on BDs/HD-DVDs
    Language                                 : English
    Default                                  : No
    Forced                                   : No
    Statistics Tags Issue                    : mkvmerge v15.0.0 ('Duel with the Devil') 64-bit 2018-07-12 03:15:06 / mkvmerge v15.0.0 ('Duel with the Devil') 64-bit 2018-07-12 03:15:06 / UTC 2018-07-02T07:02:01Z
    FromStats_BitRate                        : 27082
    FromStats_Duration                       : 00:38:35.480000000
    FromStats_FrameCount                     : 478
    FromStats_StreamSize                     : 7838756

    Text #2
    ID                                       : 5
    Format                                   : PGS
    Muxing mode                              : zlib
    Codec ID                                 : S_HDMV/PGS
    Codec ID/Info                            : Picture based subtitle format used on BDs/HD-DVDs
    Language                                 : Spanish
    Default                                  : No
    Forced                                   : No
    Statistics Tags Issue                    : mkvmerge v15.0.0 ('Duel with the Devil') 64-bit 2018-07-12 03:15:06 / mkvmerge v15.0.0 ('Duel with the Devil') 64-bit 2018-07-12 03:15:06 / UTC 2018-07-02T07:02:01Z
    FromStats_BitRate                        : 28791
    FromStats_Duration                       : 00:39:23.903000000
    FromStats_FrameCount                     : 480
    FromStats_StreamSize                     : 8507556

  • Peso: 4.00 GiB

Sinopsis

Esta nueva aventura IMAX en 3D transporta a los espectadores algunos de los lugares submarinos más exóticos y aislados de la Tierra, incluyendo el sur de Australia, Nueva Guinea y otros en la región del Indo-Pacífico, lo que les permite experimentar los encuentros cara a cara con algunos de los más misteriosos y criaturas impresionantes al mar. Se ofrece una forma única de inspiración y entretenimiento para explorar la belleza y la maravilla natural de los océanos, así como el impacto del cambio climático global.

Ficha técnica

  • Titulo original: Under the Sea 3D
  • Fecha de lanzamiento: 13-02-2009 (Canada, United States of America)
  • Director: Howard Hall
  • Género: Documental
  • Puntuación: 5.0 3 votos
  • Duración:
    0h 41m

Video trailer de la película

Enlaces de descarga

Rip de Bluray

Descargar Under the Sea (2009) Full 1080p Latino [Documental]




Aportes de DPeliculasHDmega la pass es:dpeliculashdmega.org Aportes de CinemaniaHD la pass es:cinemaniahdd.com
Guardado en : Documental

Películas relacionadas

Comentarios 0