×

¿Problemas para descargar con Mozilla, EDGE? Deshabilita la opción "Abrir vinculos en una pestaña nueva" tal como lo muestra ésta imagen.

Diamantes en bruto (2019) REMUX 1080p Latino

605 vistas

Información de Diamantes en bruto (2019) REMUX 1080p Latino

Datos de la película

  • Calidad: Full 1080p
  • Audio: Español Latino AC3 5.1 Netflix - Ingles DTS 5.1 BLURAY
  • Subtitulos: Español Latino PGS - Ingles PGS
  • Resolución: 1920x1080p
  • Formato: MKV
  • Codec: H.264
  • Encoder: CinefiloCool
  • Mediainfo: Clic para Mostrar Datos Ver
  • Diamantes en Bruto (2019) REMUX 1080p Latino-CMHDD.mkv
    Format                      : Matroska
    Format version              : Version 4
    File size                   : 37.4 GiB
    Duration                    : 2 h 15 min
    Overall bit rate mode       : Variable
    Overall bit rate            : 39.6 Mb/s
    Movie name                  : Uncut Gems (2019) CinemaniaHDD.Net
    Encoded date                : UTC 2020-03-06 04:02:33
    Writing application         : mkvmerge v42.0.0 ('Overtime') 64-bit
    Writing library             : libebml v1.3.10 + libmatroska v1.5.2
    Attachments                 : CINEMANIAHD.png

    Video
    ID                          : 1
    Format                      : AVC
    Format/Info                 : Advanced Video Codec
    Format profile              : High@L4.1
    Format settings             : CABAC / 4 Ref Frames
    Format settings, CABAC      : Yes
    Format settings, ReFrames   : 4 frames
    Codec ID                    : V_MPEG4/ISO/AVC
    Duration                    : 2 h 15 min
    Bit rate mode               : Variable
    Bit rate                    : 35.3 Mb/s
    Maximum bit rate            : 37.0 Mb/s
    Width                       : 1 920 pixels
    Height                      : 1 080 pixels
    Display aspect ratio        : 16:9
    Frame rate mode             : Constant
    Frame rate                  : 23.976 (24000/1001) FPS
    Color space                 : YUV
    Chroma subsampling          : 4:2:0
    Bit depth                   : 8 bits
    Scan type                   : Progressive
    Bits/(Pixel*Frame)          : 0.710
    Stream size                 : 33.3 GiB (89%)
    Title                       : Full HD1080p [REMUX]
    Default                     : Yes
    Forced                      : Yes

    Audio #1
    ID                          : 2
    Format                      : AC-3
    Format/Info                 : Audio Coding 3
    Commercial name             : Dolby Digital
    Codec ID                    : A_AC3
    Duration                    : 2 h 15 min
    Bit rate mode               : Constant
    Bit rate                    : 640 kb/s
    Channel(s)                  : 6 channels
    Channel layout              : L R C LFE Ls Rs
    Sampling rate               : 48.0 kHz
    Frame rate                  : 31.250 FPS (1536 SPF)
    Bit depth                   : 16 bits
    Compression mode            : Lossy
    Stream size                 : 619 MiB (2%)
    Title                       : AC3_5.1_Web_Esp
    Language                    : Spanish
    Service kind                : Complete Main
    Default                     : Yes
    Forced                      : Yes

    Audio #2
    ID                          : 3
    Format                      : DTS XLL
    Format/Info                 : Digital Theater Systems
    Commercial name             : DTS-HD Master Audio
    Codec ID                    : A_DTS
    Duration                    : 2 h 15 min
    Bit rate mode               : Variable
    Bit rate                    : 3 608 kb/s
    Channel(s)                  : 6 channels
    Channel layout              : C L R Ls Rs LFE
    Sampling rate               : 48.0 kHz
    Frame rate                  : 93.750 FPS (512 SPF)
    Bit depth                   : 24 bits
    Compression mode            : Lossless
    Stream size                 : 3.41 GiB (9%)
    Title                       : DTS-HD_5.1_Bluray_Eng
    Language                    : English
    Default                     : No
    Forced                      : No

    Text #1
    ID                          : 4
    Format                      : PGS
    Muxing mode                 : zlib
    Codec ID                    : S_HDMV/PGS
    Codec ID/Info               : Picture based subtitle format used on BDs/HD-DVDs
    Duration                    : 2 h 8 min
    Bit rate                    : 60.3 kb/s
    Count of elements           : 4560
    Stream size                 : 55.2 MiB (0%)
    Title                       : Sub_Esp [PGS]
    Language                    : Spanish
    Default                     : No
    Forced                      : No

    Text #2
    ID                          : 5
    Format                      : PGS
    Muxing mode                 : zlib
    Codec ID                    : S_HDMV/PGS
    Codec ID/Info               : Picture based subtitle format used on BDs/HD-DVDs
    Duration                    : 2 h 9 min
    Bit rate                    : 72.4 kb/s
    Count of elements           : 4976
    Stream size                 : 67.1 MiB (0%)
    Title                       : Sub_Eng [PGS]
    Language                    : English
    Default                     : No
    Forced                      : No

    Text #3
    ID                          : 6
    Format                      : UTF-8
    Codec ID                    : S_TEXT/UTF8
    Codec ID/Info               : UTF-8 Plain Text
    Duration                    : 2 h 14 min
    Bit rate                    : 1 b/s
    Count of elements           : 40
    Stream size                 : 1.35 KiB (0%)
    Title                       : Sub_Forzados
    Language                    : Spanish
    Default                     : Yes
    Forced                      : Yes

    Text #4
    ID                          : 7
    Format                      : UTF-8
    Codec ID                    : S_TEXT/UTF8
    Codec ID/Info               : UTF-8 Plain Text
    Duration                    : 2 h 14 min
    Bit rate                    : 77 b/s
    Count of elements           : 2514
    Stream size                 : 76.2 KiB (0%)
    Title                       : Sub_Esp
    Language                    : Spanish
    Default                     : No
    Forced                      : No

    Menu
    00:00:00.000                : en:Chapter 01
    00:08:37.475                : en:Chapter 02
    00:18:26.605                : en:Chapter 03
    00:23:23.276                : en:Chapter 04
    00:31:56.122                : en:Chapter 05
    00:36:06.038                : en:Chapter 06
    00:43:14.341                : en:Chapter 07
    00:51:10.233                : en:Chapter 08
    00:57:30.363                : en:Chapter 09
    01:03:09.035                : en:Chapter 10
    01:11:49.430                : en:Chapter 11
    01:21:41.938                : en:Chapter 12
    01:31:03.291                : en:Chapter 13
    01:42:45.492                : en:Chapter 14
    01:49:37.112                : en:Chapter 15
    02:00:15.333                : en:Chapter 16

  • Peso: 37.4 GiB

Sinopsis

Descargar Diamantes en bruto (2019) REMUX 1080p Latino. Howard Ratner es el propietario de una joyería ubicada en el barrio de los diamantes de la ciudad de Nueva York que vende en exclusiva a ricos y famosos. Un día se produce un importante robo que le obliga a tener que afrontar una deuda económica que no está preparado para pagar.

Ficha técnica

Video trailer de la película

Enlaces de descarga

Rip de Bluray

Descargar Diamantes en bruto (2019) REMUX 1080p Latino




Aportes de DPeliculasHDmega la pass es:dpeliculashdmega.org Aportes de CinemaniaHD la pass es:cinemaniahdd.com
Guardado en : Crimen , Drama , Remux , Suspenso

Películas relacionadas

  • Blonde (2022) NF WEB-DL 1080p Latino

    Blonde (2022) NF WEB-DL 1080p Latino

    2022
    Blonde (2022) NF WEB-DL 1080p Latino

    2h 46m 2022

    Descargar Blonde (2022) NF WEB-DL 1080p Latino. Basada en el bestseller de la cinco veces finalista al...

    Director: Kristin Bree Calabrese

    Género: Drama

    Actores: Xavier Samuel

  • La Máquina infernal (2022) WEB-DL 1080p Latino

    La Máquina infernal (2022) WEB-DL 1080p Latino

    2022
    La Máquina infernal (2022) WEB-DL 1080p Latino

    1h 47m 2022

    Descargar La Máquina infernal (2022) WEB-DL 1080p Latino. Un fan obsesivo saca de su escondite al solitario...

    Director: Andrew Hunt

    Género: Suspenso

    Actores: Rocco Salata

  • Borrego: Sal Del Camino (2022) HD 1080p Latino

    Borrego: Sal Del Camino (2022) HD 1080p Latino

    2022
    Borrego: Sal Del Camino (2022) HD 1080p Latino

    1h 42m 2022

    Descargar Borrego: Sal Del Camino (2022) HD 1080p Latino. Una joven botánica se traslada a un pequeño...

    Director: Jesse Harris

    Género: Crimen

    Actores: Olivia Trujillo

  • Borrego: Sal Del Camino (2022) REMUX 1080p Latino

    Borrego: Sal Del Camino (2022) REMUX 1080p Latino

    2022
    Borrego: Sal Del Camino (2022) REMUX 1080p Latino

    1h 42m 2022

    Descargar Borrego: Sal Del Camino (2022) REMUX 1080p Latino. Una joven botánica se traslada a un pequeño...

    Director: Jesse Harris

    Género: Crimen

    Actores: Olivia Trujillo

descargar Diamantes en bruto (2019) REMUX 1080p Latino Full 1080p 1080p gratis, Diamantes en bruto (2019) REMUX 1080p Latino Full 1080p mega 1 link, Diamantes en bruto (2019) REMUX 1080p Latino Full 1080p pelicula completa, descargar Diamantes en bruto (2019) REMUX 1080p Latino Full 1080p gratis en mega.

Diamantes en bruto (2019) REMUX 1080p Latino pelicula full hd, Diamantes en bruto (2019) REMUX 1080p Latino mega latino, Diamantes en bruto (2019) REMUX 1080p Latino 4k latino, Diamantes en bruto (2019) REMUX 1080p Latino pelicula completa, Diamantes en bruto (2019) REMUX 1080p Latino descargar gratis, descargar Diamantes en bruto (2019) REMUX 1080p Latino pelicula latino, Diamantes en bruto (2019) REMUX 1080p Latino 1 link mega, Diamantes en bruto (2019) REMUX 1080p Latino 1 link google drive, Diamantes en bruto (2019) REMUX 1080p Latino hd 1080p latino.
Comentarios 0