×

¿Problemas para descargar con Mozilla, EDGE? Deshabilita la opción "Abrir vinculos en una pestaña nueva" tal como lo muestra ésta imagen.

Uncle Frank (2020) AMZN WEB-DL 1080p Latino

176 vistas

Información de Uncle Frank (2020) AMZN WEB-DL 1080p Latino

Datos de la película

  • Calidad: WEBDL
  • Audio: Español Latino E-AC3 5.1 AMAZON - Ingles E-AC3 5.1 AMAZON
  • Subtitulos: Español Latino SRT- FORZADOS SRT
  • Resolución: 1920x800
  • Formato: MKV
  • Codec: H.264
  • Encoder: cinemaniahdd
  • Mediainfo: Clic para Mostrar Datos Ver
  • Uncle Frank (2020) AMZN WEB-DL 1080p Latino [CNMNHDD].mkv
    Format                      : Matroska
    Format version              : Version 4
    File size                   : 7.77 GiB
    Duration                    : 1 h 34 min
    Overall bit rate            : 11.7 Mb/s
    Movie name                  : Uncle Frank (2020) - CinemaniaHDD.Net
    Encoded date                : UTC 2020-11-25 00:16:55
    Writing application         : mkvmerge v51.0.0 ('I Wish') 64-bit
    Writing library             : libebml v1.4.0 + libmatroska v1.6.2

    Video
    ID                          : 1
    Format                      : AVC
    Format/Info                 : Advanced Video Codec
    Format profile              : High@L4
    Format settings             : CABAC / 4 Ref Frames
    Format settings, CABAC      : Yes
    Format settings, Reference  : 4 frames
    Codec ID                    : V_MPEG4/ISO/AVC
    Duration                    : 1 h 34 min
    Bit rate mode               : Constant
    Bit rate                    : 9 184 kb/s
    Nominal bit rate            : 10 000 kb/s
    Width                       : 1 920 pixels
    Height                      : 800 pixels
    Display aspect ratio        : 2.40:1
    Frame rate mode             : Constant
    Frame rate                  : 23.976 (24000/1001) FPS
    Color space                 : YUV
    Chroma subsampling          : 4:2:0
    Bit depth                   : 8 bits
    Scan type                   : Progressive
    Bits/(Pixel*Frame)          : 0.249
    Stream size                 : 6.07 GiB (78%)
    Title                       : CinemaniaHDD
    Default                     : Yes
    Forced                      : No
    Color range                 : Limited
    Color primaries             : BT.709
    Transfer characteristics    : BT.709
    Matrix coefficients         : BT.709

    Audio #1
    ID                          : 2
    Format                      : AC-3
    Format/Info                 : Audio Coding 3
    Commercial name             : Dolby Digital
    Codec ID                    : A_AC3
    Duration                    : 1 h 34 min
    Bit rate mode               : Constant
    Bit rate                    : 640 kb/s
    Channel(s)                  : 6 channels
    Channel layout              : L R C LFE Ls Rs
    Sampling rate               : 48.0 kHz
    Frame rate                  : 31.250 FPS (1536 SPF)
    Compression mode            : Lossy
    Stream size                 : 433 MiB (5%)
    Title                       : Español latino - AC3 [CinemaniaHDD]
    Language                    : Spanish
    Service kind                : Complete Main
    Default                     : Yes
    Forced                      : No

    Audio #2
    ID                          : 3
    Format                      : E-AC-3
    Format/Info                 : Enhanced AC-3
    Commercial name             : Dolby Digital Plus
    Codec ID                    : A_EAC3
    Duration                    : 1 h 34 min
    Bit rate mode               : Constant
    Bit rate                    : 640 kb/s
    Channel(s)                  : 6 channels
    Channel layout              : L R C LFE Ls Rs
    Sampling rate               : 48.0 kHz
    Frame rate                  : 31.250 FPS (1536 SPF)
    Compression mode            : Lossy
    Stream size                 : 433 MiB (5%)
    Title                       : Español latino - E-AC3 [CinemaniaHDD]
    Language                    : Spanish
    Service kind                : Complete Main
    Default                     : No
    Forced                      : No

    Audio #3
    ID                          : 4
    Format                      : E-AC-3
    Format/Info                 : Enhanced AC-3
    Commercial name             : Dolby Digital Plus
    Codec ID                    : A_EAC3
    Duration                    : 1 h 34 min
    Bit rate mode               : Constant
    Bit rate                    : 640 kb/s
    Channel(s)                  : 6 channels
    Channel layout              : L R C LFE Ls Rs
    Sampling rate               : 48.0 kHz
    Frame rate                  : 31.250 FPS (1536 SPF)
    Compression mode            : Lossy
    Stream size                 : 433 MiB (5%)
    Title                       : Inglés - E-AC3 [CinemaniaHDD]
    Language                    : English
    Service kind                : Complete Main
    Default                     : No
    Forced                      : No

    Audio #4
    ID                          : 5
    Format                      : AC-3
    Format/Info                 : Audio Coding 3
    Commercial name             : Dolby Digital
    Codec ID                    : A_AC3
    Duration                    : 1 h 34 min
    Bit rate mode               : Constant
    Bit rate                    : 640 kb/s
    Channel(s)                  : 6 channels
    Channel layout              : L R C LFE Ls Rs
    Sampling rate               : 48.0 kHz
    Frame rate                  : 31.250 FPS (1536 SPF)
    Compression mode            : Lossy
    Stream size                 : 433 MiB (5%)
    Title                       : Inglés - AC3 [CinemaniaHDD]
    Language                    : English
    Service kind                : Complete Main
    Default                     : No
    Forced                      : No

    Text #1
    ID                          : 6
    Format                      : UTF-8
    Codec ID                    : S_TEXT/UTF8
    Codec ID/Info               : UTF-8 Plain Text
    Duration                    : 1 h 16 min
    Bit rate                    : 1 b/s
    Count of elements           : 33
    Stream size                 : 1.00 KiB (0%)
    Title                       : Forzados [CinemaniaHDD]
    Language                    : Spanish
    Default                     : Yes
    Forced                      : Yes

    Text #2
    ID                          : 7
    Format                      : UTF-8
    Codec ID                    : S_TEXT/UTF8
    Codec ID/Info               : UTF-8 Plain Text
    Duration                    : 1 h 33 min
    Bit rate                    : 51 b/s
    Count of elements           : 1240
    Stream size                 : 35.1 KiB (0%)
    Title                       : Español latino [CinemaniaHDD]
    Language                    : Spanish
    Default                     : No
    Forced                      : No

    Text #3
    ID                          : 8
    Format                      : UTF-8
    Codec ID                    : S_TEXT/UTF8
    Codec ID/Info               : UTF-8 Plain Text
    Duration                    : 1 h 29 min
    Bit rate                    : 66 b/s
    Count of elements           : 1562
    Stream size                 : 43.7 KiB (0%)
    Title                       : Inglés [CinemaniaHDD]
    Language                    : English
    Default                     : No
    Forced                      : No

    Menu
    00:00:00.000                : en:Amazon Original
    00:00:20.000                : en:Studio Logos
    00:01:01.000                : en:Opening Credits
    00:01:27.000                : en:A big loud family
    00:07:19.000                : en:Uncle Frank isn't like the rest
    00:10:24.000                : en:Dinner celebrations
    00:12:54.000                : en:Making a new friend
    00:15:37.000                : en:Party crashers
    00:23:01.000                : en:Bathroom confessions
    00:25:45.000                : en:Intimate moments
    00:26:26.000                : en:Beth learns the truth
    00:30:12.000                : en:Making arrangements
    00:32:45.000                : en:Getting to know one another
    00:37:04.000                : en:Memories
    00:37:47.000                : en:An unexpected visitor
    00:42:06.000                : en:Wally and Beth chat about Frank
    00:42:57.000                : en:Remembering Sam
    00:43:59.000                : en:The love of parents
    00:45:29.000                : en:Car malfunction
    00:48:31.000                : en:Caught in the act
    00:48:58.000                : en:Welcome to Creekville
    00:50:29.000                : en:Making a pit stop
    00:51:56.000                : en:Attending the funeral
    00:55:52.000                : en:A phone call home
    00:56:19.000                : en:Kitty worries about Beth
    00:58:20.000                : en:Wally confronts Frank
    01:00:12.000                : en:Painful memories
    01:03:23.000                : en:Wally takes matters into his own hands
    01:04:02.000                : en:Reconnecting with family
    01:08:01.000                : en:Reading of the will
    01:10:03.000                : en:The family knows
    01:11:43.000                : en:Frank confronts his demons
    01:15:23.000                : en:Frank hates himself
    01:17:08.000                : en:Visiting the grave
    01:22:10.000                : en:Meeting the family
    01:30:08.000                : en:End Credits

     

  • Peso: 7.77 GiB

Sinopsis

En 1973, cuando Frank Bledsoe y su sobrina Beth de 18 años hacen un viaje por carretera desde Manhattan a Creekville, Carolina del Sur, para el funeral del patriarca familiar, se les une inesperadamente Walid, el amante de Frank.

Ficha técnica

  • Titulo original: Uncle Frank
  • Fecha de lanzamiento: 23-01-2020 (United States of America)
  • Director: Alan Ball
  • Género: Drama

Video trailer de la película

Enlaces de descarga

Rip de Bluray

Descargar Uncle Frank (2020) AMZN WEB-DL 1080p Latino




Aportes de DPeliculasHDmega la pass es:dpeliculashdmega.org Aportes de CinemaniaHD la pass es:cinemaniahdd.com
Guardado en : Drama

Películas relacionadas

descargar Uncle Frank (2020) AMZN WEB-DL 1080p Latino WEBDL 1080p gratis, Uncle Frank (2020) AMZN WEB-DL 1080p Latino WEBDL mega 1 link, Uncle Frank (2020) AMZN WEB-DL 1080p Latino WEBDL pelicula completa, descargar Uncle Frank (2020) AMZN WEB-DL 1080p Latino WEBDL gratis en mega.

Uncle Frank (2020) AMZN WEB-DL 1080p Latino pelicula full hd, Uncle Frank (2020) AMZN WEB-DL 1080p Latino mega latino, Uncle Frank (2020) AMZN WEB-DL 1080p Latino 4k latino, Uncle Frank (2020) AMZN WEB-DL 1080p Latino pelicula completa, Uncle Frank (2020) AMZN WEB-DL 1080p Latino descargar gratis, descargar Uncle Frank (2020) AMZN WEB-DL 1080p Latino pelicula latino, Uncle Frank (2020) AMZN WEB-DL 1080p Latino 1 link mega, Uncle Frank (2020) AMZN WEB-DL 1080p Latino 1 link google drive, Uncle Frank (2020) AMZN WEB-DL 1080p Latino hd 1080p latino.
Comentarios 0