×

¿Problemas para descargar con Mozilla, EDGE? Deshabilita la opción "Abrir vinculos en una pestaña nueva" tal como lo muestra ésta imagen.

Uncharted (2022) REMUX 4K HDR Latino – CMHDD

250 vistas

Información de Uncharted (2022) REMUX 4K HDR Latino – CMHDD

Datos de la película

  • Calidad: 4K HDR
  • Audio: Se especifica abajo de la Sinopsis
  • Subtitulos: Español Latino PGS
  • Resolución: 3840x2160p
  • Formato: MKV
  • Codec: H.264
  • Encoder: Dracarys
  • Mediainfo: Clic para Mostrar Datos Ver
  • Format                      : Matroska
    Format version              : Version 4
    File size                   : 44.8 GiB
    Duration                    : 1 h 55 min
    Overall bit rate mode       : Variable
    Overall bit rate            : 55.4 Mb/s
    Movie name                  : Uncharted (2022) REMUX 4K HDR Latino - CMHDD
    Encoded date                : UTC 2022-05-16 02:23:46
    Writing application         : mkvmerge v17.0.0 ('Be Ur Friend') 64-bit
    Writing library             : libebml v1.3.5 + libmatroska v1.4.8

    Video
    ID                          : 1
    Format                      : HEVC
    Format/Info                 : High Efficiency Video Coding
    Format profile              : Main 10@L5.1@High
    HDR format                  : SMPTE ST 2086, HDR10 compatible
    Codec ID                    : V_MPEGH/ISO/HEVC
    Duration                    : 1 h 55 min
    Bit rate                    : 49.9 Mb/s
    Width                       : 3 840 pixels
    Height                      : 2 160 pixels
    Display aspect ratio        : 16:9
    Frame rate mode             : Constant
    Frame rate                  : 23.976 (24000/1001) FPS
    Color space                 : YUV
    Chroma subsampling          : 4:2:0 (Type 2)
    Bit depth                   : 10 bits
    Bits/(Pixel*Frame)          : 0.251
    Stream size                 : 40.4 GiB (90%)
    Default                     : Yes
    Forced                      : No
    Color range                 : Limited
    Color primaries             : BT.2020
    Transfer characteristics    : PQ
    Matrix coefficients         : BT.2020 non-constant
    Mastering display color pri : Display P3
    Mastering display luminance : min: 0.0001 cd/m2, max: 1000 cd/m2
    Maximum Content Light Level : 1022 cd/m2
    Maximum Frame-Average Light : 293 cd/m2

    Audio #1
    ID                          : 2
    Format                      : MLP FBA 16-ch
    Format/Info                 : Meridian Lossless Packing FBA with 16-channel presentation
    Commercial name             : Dolby TrueHD with Dolby Atmos
    Codec ID                    : A_TRUEHD
    Duration                    : 1 h 55 min
    Bit rate mode               : Variable
    Bit rate                    : 4 081 kb/s
    Maximum bit rate            : 6 975 kb/s
    Channel(s)                  : 8 channels
    Channel layout              : L R C LFE Ls Rs Lb Rb
    Sampling rate               : 48.0 kHz
    Frame rate                  : 1 200.000 FPS (40 SPF)
    Compression mode            : Lossless
    Stream size                 : 3.30 GiB (7%)
    Language                    : English
    Default                     : No
    Forced                      : No
    Number of dynamic objects   : 11
    Bed channel count           : 1 channel
    Bed channel configuration   : LFE

    Audio #2
    ID                          : 3
    Format                      : AC-3
    Format/Info                 : Audio Coding 3
    Commercial name             : Dolby Digital
    Codec ID                    : A_AC3
    Duration                    : 1 h 55 min
    Bit rate mode               : Constant
    Bit rate                    : 640 kb/s
    Channel(s)                  : 6 channels
    Channel layout              : L R C LFE Ls Rs
    Sampling rate               : 48.0 kHz
    Frame rate                  : 31.250 FPS (1536 SPF)
    Compression mode            : Lossy
    Stream size                 : 530 MiB (1%)
    Language                    : English
    Service kind                : Complete Main
    Default                     : No
    Forced                      : No

    Audio #3
    ID                          : 4
    Format                      : AC-3
    Format/Info                 : Audio Coding 3
    Commercial name             : Dolby Digital
    Codec ID                    : A_AC3
    Duration                    : 1 h 55 min
    Bit rate mode               : Constant
    Bit rate                    : 640 kb/s
    Channel(s)                  : 6 channels
    Channel layout              : L R C LFE Ls Rs
    Sampling rate               : 48.0 kHz
    Frame rate                  : 31.250 FPS (1536 SPF)
    Compression mode            : Lossy
    Stream size                 : 530 MiB (1%)
    Language                    : Spanish
    Service kind                : Complete Main
    Default                     : Yes
    Forced                      : No

    Text #1
    ID                          : 5
    Format                      : PGS
    Muxing mode                 : zlib
    Codec ID                    : S_HDMV/PGS
    Codec ID/Info               : Picture based subtitle format used on BDs/HD-DVDs
    Duration                    : 1 h 53 min
    Bit rate                    : 27.4 kb/s
    Count of elements           : 2586
    Stream size                 : 22.3 MiB (0%)
    Language                    : Spanish
    Default                     : No
    Forced                      : No

    Text #2
    ID                          : 6
    Format                      : PGS
    Muxing mode                 : zlib
    Codec ID                    : S_HDMV/PGS
    Codec ID/Info               : Picture based subtitle format used on BDs/HD-DVDs
    Duration                    : 1 h 51 min
    Bit rate                    : 60.5 kb/s
    Count of elements           : 3524
    Stream size                 : 48.1 MiB (0%)
    Language                    : Spanish
    Default                     : No
    Forced                      : No

    Menu
    00:00:00.000                : en:Chapter 1
    00:08:16.496                : en:Chapter 2
    00:12:23.409                : en:Chapter 3
    00:18:56.885                : en:Chapter 4
    00:24:30.218                : en:Chapter 5
    00:31:35.101                : en:Chapter 6
    00:36:14.463                : en:Chapter 7
    00:41:26.984                : en:Chapter 8
    00:48:05.173                : en:Chapter 9
    00:53:18.403                : en:Chapter 10
    00:59:13.258                : en:Chapter 11
    01:05:53.199                : en:Chapter 12
    01:12:02.943                : en:Chapter 13
    01:17:33.065                : en:Chapter 14
    01:25:00.386                : en:Chapter 15
    01:34:41.842                : en:Chapter 16

  • Peso: 44.8 GiB

Sinopsis

Un descendiente del explorador Sir Francis Drake descubre la ubicación de la legendaria ciudad de El Dorado. Con la ayuda de su mentor Victor Sullivan y la ambiciosa periodista Elena Fischer, Nathan Drake trabajará para descubrir sus secretos, mientras sobreviven en una isla llena de piratas, mercenarios, y un misterioso enemigo, se embarcarán en una búsqueda sin precedentes por alcanzar el tesoro antes que sus perseguidores. Adaptación del aclamado videojuego homónimo.

 

Latino; AC3 5.1  –  Inglés; True HD 7.1

Ficha técnica

Video trailer de la película

Enlaces de descarga

Rip de Bluray

Descargar Uncharted (2022) REMUX 4K HDR Latino – CMHDD


Aportes de DPeliculasHDmega la pass es:dpeliculashdmega.org Aportes de CinemaniaHD la pass es:cinemaniahdd.com
Guardado en : Acción , Aventura

Películas relacionadas

Uncharted (2022) REMUX 4K HDR Latino – CMHDD pelicula full hd, Uncharted (2022) REMUX 4K HDR Latino – CMHDD mega latino, Uncharted (2022) REMUX 4K HDR Latino – CMHDD 4k latino, Uncharted (2022) REMUX 4K HDR Latino – CMHDD pelicula completa, Uncharted (2022) REMUX 4K HDR Latino – CMHDD descargar gratis, descargar Uncharted (2022) REMUX 4K HDR Latino – CMHDD pelicula latino, Uncharted (2022) REMUX 4K HDR Latino – CMHDD 1 link mega, Uncharted (2022) REMUX 4K HDR Latino – CMHDD 1 link google drive, Uncharted (2022) REMUX 4K HDR Latino – CMHDD hd 1080p latino.
Comentarios 0