×

¿Problemas para descargar con Mozilla, EDGE? Deshabilita la opción "Abrir vinculos en una pestaña nueva" tal como lo muestra ésta imagen.

Uncharted: Fuera del Mapa (2022) HD 1080p Latino

1.353 vistas

Información de Uncharted: Fuera del Mapa (2022) HD 1080p Latino

Datos de la película

  • Calidad: 1080p
  • Audio: Español Latino AC3 5.1 WEB-DL - Ingles AC3 5.1 BLURAY
  • Subtitulos: Español Latino SRT- FORZADOS SRT
  • Resolución: 1920x804p
  • Formato: MKV
  • Codec: H.264
  • Encoder: Melkor
  • Mediainfo: Clic para Mostrar Datos Ver
  • Uncharted. Fuera Del Mapa (2022) HD 1080p Latino.mkv
    Format                      : Matroska
    Format version              : Version 4
    File size                   : 3.56 GiB
    Duration                    : 1 h 55 min
    Overall bit rate            : 4 395 kb/s
    Movie name                  : Uncharted (2022) CinemaniaHDD.Net
    Encoded date                : UTC 2022-04-24 19:03:00
    Writing application         : mkvmerge v56.1.0 ('My Friend') 64-bit
    Writing library             : libebml v1.4.2 + libmatroska v1.6.4

    Video
    ID                          : 1
    Format                      : AVC
    Format/Info                 : Advanced Video Codec
    Format profile              : High@L4.1
    Format settings             : CABAC / 5 Ref Frames
    Format settings, CABAC      : Yes
    Format settings, Reference  : 5 frames
    Codec ID                    : V_MPEG4/ISO/AVC
    Duration                    : 1 h 55 min
    Bit rate                    : 3 500 kb/s
    Width                       : 1 920 pixels
    Height                      : 804 pixels
    Display aspect ratio        : 2.40:1
    Frame rate mode             : Constant
    Frame rate                  : 23.976 (24000/1001) FPS
    Color space                 : YUV
    Chroma subsampling          : 4:2:0
    Bit depth                   : 8 bits
    Scan type                   : Progressive
    Bits/(Pixel*Frame)          : 0.095
    Stream size                 : 2.83 GiB (80%)
    Title                       : HD1080p [CinemaniaHDD]
    Writing library             : x264 core 163 r3059 b684ebe0
    Encoding settings           : cabac=1 / ref=5 / deblock=1:-1:-1 / analyse=0x3:0x133 / me=umh / subme=9 / psy=1 / psy_rd=1.00:0.15 / mixed_ref=1 / me_range=16 / chroma_me=1 / trellis=2 / 8x8dct=1 / cqm=0 / deadzone=21,11 / fast_pskip=1 / chroma_qp_offset=-3 / threads=24 / lookahead_threads=2 / sliced_threads=0 / nr=0 / decimate=1 / interlaced=0 / bluray_compat=0 / constrained_intra=0 / bframes=3 / b_pyramid=2 / b_adapt=2 / b_bias=0 / direct=3 / weightb=1 / open_gop=0 / weightp=2 / keyint=240 / keyint_min=24 / scenecut=40 / intra_refresh=0 / rc_lookahead=60 / rc=2pass / mbtree=1 / bitrate=3500 / ratetol=1.0 / qcomp=0.60 / qpmin=0 / qpmax=69 / qpstep=4 / cplxblur=20.0 / qblur=0.5 / vbv_maxrate=62500 / vbv_bufsize=78125 / nal_hrd=none / filler=0 / ip_ratio=1.40 / aq=1:1.00
    Default                     : Yes
    Forced                      : Yes
    Color range                 : Limited
    Color primaries             : BT.709
    Transfer characteristics    : BT.709
    Matrix coefficients         : BT.709

    Audio #1
    ID                          : 2
    Format                      : AC-3
    Format/Info                 : Audio Coding 3
    Commercial name             : Dolby Digital
    Codec ID                    : A_AC3
    Duration                    : 1 h 55 min
    Bit rate mode               : Constant
    Bit rate                    : 448 kb/s
    Channel(s)                  : 6 channels
    Channel layout              : L R C LFE Ls Rs
    Sampling rate               : 48.0 kHz
    Frame rate                  : 31.250 FPS (1536 SPF)
    Compression mode            : Lossy
    Delay relative to video     : -5 ms
    Stream size                 : 371 MiB (10%)
    Title                       : Español Latino [CinemaniaHDD]
    Language                    : Spanish
    Service kind                : Complete Main
    Default                     : Yes
    Forced                      : Yes

    Audio #2
    ID                          : 3
    Format                      : AC-3
    Format/Info                 : Audio Coding 3
    Commercial name             : Dolby Digital
    Codec ID                    : A_AC3
    Duration                    : 1 h 55 min
    Bit rate mode               : Constant
    Bit rate                    : 448 kb/s
    Channel(s)                  : 6 channels
    Channel layout              : L R C LFE Ls Rs
    Sampling rate               : 48.0 kHz
    Frame rate                  : 31.250 FPS (1536 SPF)
    Compression mode            : Lossy
    Delay relative to video     : -5 ms
    Stream size                 : 371 MiB (10%)
    Title                       : Ingles [CinemaniaHDD]
    Language                    : English
    Service kind                : Complete Main
    Default                     : No
    Forced                      : No

    Text #1
    ID                          : 4
    Format                      : UTF-8
    Codec ID                    : S_TEXT/UTF8
    Codec ID/Info               : UTF-8 Plain Text
    Duration                    : 1 h 42 min
    Bit rate                    : 0 b/s
    Count of elements           : 22
    Stream size                 : 503 Bytes (0%)
    Title                       : Forzados-SRT [CinemaniaHDD]
    Language                    : Spanish
    Default                     : Yes
    Forced                      : Yes

    Text #2
    ID                          : 5
    Format                      : UTF-8
    Codec ID                    : S_TEXT/UTF8
    Codec ID/Info               : UTF-8 Plain Text
    Duration                    : 1 h 47 min
    Bit rate                    : 47 b/s
    Count of elements           : 1292
    Stream size                 : 37.3 KiB (0%)
    Title                       : Español-SRT [CinemaniaHDD]
    Language                    : Spanish
    Default                     : No
    Forced                      : No

    Text #3
    ID                          : 6
    Format                      : UTF-8
    Codec ID                    : S_TEXT/UTF8
    Codec ID/Info               : UTF-8 Plain Text
    Duration                    : 1 h 47 min
    Bit rate                    : 57 b/s
    Count of elements           : 1628
    Stream size                 : 45.1 KiB (0%)
    Title                       : Ingles-SRT [CinemaniaHDD]
    Language                    : English
    Default                     : No
    Forced                      : No

    Menu
    00:00:00.000                : :Chapter 1
    00:08:16.621                : :Chapter 2
    00:12:23.534                : :Chapter 3
    00:18:57.094                : :Chapter 4
    00:24:30.386                : :Chapter 5
    00:31:35.227                : :Chapter 6
    00:36:14.673                : :Chapter 7
    00:41:27.110                : :Chapter 8
    00:48:05.299                : :Chapter 9
    00:53:18.529                : :Chapter 10
    00:59:13.383                : :Chapter 11
    01:05:53.408                : :Chapter 12
    01:12:03.069                : :Chapter 13
    01:17:33.065                : :Chapter 14
    01:25:00.512                : :Chapter 15
    01:34:42.010                : :Chapter 16
    Uncharted. Fuera Del Mapa (2022) BDRip 1080p Latino[CMHDD].mkv
    File size                   : 13.9 GiB
    Duration                    : 1 h 55 min
    Movie name                  : Uncharted (2022) CinemaniaHDD.Net
    Video
    Format                      : AVC x264 High@L4.1
    Bit rate                    : 15.2 Mb/s
    Width                       : 1 920 pixels
    Height                      : 804 pixels
    Frame rate                  : 23.976 (24000/1001) FPS
    Audio #1
    Format                      : AC-3
    Bit rate                    : 448 kb/s
    Channel(s)                  : 6 channels
    Sampling rate               : 48.0 kHz
    Title                       : Español Latino [CinemaniaHDD]
    Language                    : Spanish
    Audio #2
    Format                      : DTS
    Bit rate                    : 1 509 kb/s
    Channel(s)                  : 6 channels
    Sampling rate               : 48.0 kHz
    Title                       : Ingles [CinemaniaHDD]
    Language                    : English
    Subtitulos: Forzados-SRT, Español-SRT, Ingles-SRT

  • Peso: 3.56 GiB | 13.9 GiB

Sinopsis

Descargar Uncharted: Fuera del Mapa (2022) HD 1080p Latino. Un descendiente del explorador Sir Francis Drake descubre la ubicación de la legendaria ciudad de El Dorado. Con la ayuda de su mentor Victor Sullivan y la ambiciosa periodista Elena Fischer, Nathan Drake trabajará para descubrir sus secretos, mientras sobreviven en una isla llena de piratas, mercenarios, y un misterioso enemigo, se embarcarán en una búsqueda sin precedentes por alcanzar el tesoro antes que sus perseguidores. Adaptación del aclamado videojuego homónimo.

Nota: Version Ligera & Pesada!!!

Ficha técnica

Video trailer de la película

Enlaces de descarga

Rip de Bluray

Descargar Uncharted: Fuera del Mapa (2022) HD 1080p Latino




Aportes de DPeliculasHDmega la pass es:dpeliculashdmega.org Aportes de CinemaniaHD la pass es:cinemaniahdd.com
Guardado en : Acción , Aventura , HD 1080p

Películas relacionadas

descargar Uncharted: Fuera del Mapa (2022) HD 1080p Latino 1080p 1080p gratis, Uncharted: Fuera del Mapa (2022) HD 1080p Latino 1080p mega 1 link, Uncharted: Fuera del Mapa (2022) HD 1080p Latino 1080p pelicula completa, descargar Uncharted: Fuera del Mapa (2022) HD 1080p Latino 1080p gratis en mega.

Uncharted: Fuera del Mapa (2022) HD 1080p Latino pelicula full hd, Uncharted: Fuera del Mapa (2022) HD 1080p Latino mega latino, Uncharted: Fuera del Mapa (2022) HD 1080p Latino 4k latino, Uncharted: Fuera del Mapa (2022) HD 1080p Latino pelicula completa, Uncharted: Fuera del Mapa (2022) HD 1080p Latino descargar gratis, descargar Uncharted: Fuera del Mapa (2022) HD 1080p Latino pelicula latino, Uncharted: Fuera del Mapa (2022) HD 1080p Latino 1 link mega, Uncharted: Fuera del Mapa (2022) HD 1080p Latino 1 link google drive, Uncharted: Fuera del Mapa (2022) HD 1080p Latino hd 1080p latino.
Comentarios 0