×

¿Problemas para descargar con Mozilla, EDGE? Deshabilita la opción "Abrir vinculos en una pestaña nueva" tal como lo muestra ésta imagen.

Uncanny Annie (2019) WEB-DL 1080p Latino

1.098 vistas

Información de Uncanny Annie (2019) WEB-DL 1080p Latino

Datos de la película

  • Calidad: WEBDL
  • Audio: Se especifica abajo de la Sinopsis
  • Subtitulos: Español Latino SRT - Ingles SRT
  • Resolución: 1920x1080
  • Formato: MKV
  • Codec: H.264
  • Encoder: cinemaniahdd
  • Mediainfo: Clic para Mostrar Datos Ver
  • Uncanny Annie (2019) WEB-DL 1080p Latino.mkv
    Format                      : Matroska
    Format version              : Version 4
    File size                   : 1.72 GiB
    Duration                    : 1 h 20 min
    Overall bit rate            : 3 064 kb/s
    Movie name                  : Uncanny Annie (2019) - CinemaniaHDD.Net
    Encoded date                : UTC 2019-11-29 04:13:41
    Writing application         : mkvmerge v38.0.0 ('The Silent Type') 64-bit
    Writing library             : libebml v1.3.9 + libmatroska v1.5.2

    Video
    ID                          : 1
    Format                      : AVC
    Format/Info                 : Advanced Video Codec
    Format profile              : High@L4
    Format settings             : CABAC / 4 Ref Frames
    Format settings, CABAC      : Yes
    Format settings, ReFrames   : 4 frames
    Codec ID                    : V_MPEG4/ISO/AVC
    Duration                    : 1 h 20 min
    Bit rate                    : 2 428 kb/s
    Width                       : 1 920 pixels
    Height                      : 1 080 pixels
    Display aspect ratio        : 16:9
    Frame rate mode             : Constant
    Frame rate                  : 23.976 (24000/1001) FPS
    Color space                 : YUV
    Chroma subsampling          : 4:2:0
    Bit depth                   : 8 bits
    Scan type                   : Progressive
    Bits/(Pixel*Frame)          : 0.049
    Stream size                 : 1.36 GiB (79%)
    Title                       : CinemaniaHDD
    Default                     : Yes
    Forced                      : No

    Audio #1
    ID                          : 2
    Format                      : AC-3
    Format/Info                 : Audio Coding 3
    Commercial name             : Dolby Digital
    Codec ID                    : A_AC3
    Duration                    : 1 h 18 min
    Bit rate mode               : Constant
    Bit rate                    : 256 kb/s
    Channel(s)                  : 2 channels
    Channel layout              : L R
    Sampling rate               : 48.0 kHz
    Frame rate                  : 31.250 FPS (1536 SPF)
    Bit depth                   : 16 bits
    Compression mode            : Lossy
    Stream size                 : 143 MiB (8%)
    Title                       : Español latino [CinemaniaHDD]
    Language                    : Spanish
    Service kind                : Complete Main
    Default                     : Yes
    Forced                      : No

    Audio #2
    ID                          : 3
    Format                      : AC-3
    Format/Info                 : Audio Coding 3
    Commercial name             : Dolby Digital
    Codec ID                    : A_AC3
    Duration                    : 1 h 20 min
    Bit rate mode               : Constant
    Bit rate                    : 384 kb/s
    Channel(s)                  : 6 channels
    Channel layout              : L R C LFE Ls Rs
    Sampling rate               : 48.0 kHz
    Frame rate                  : 31.250 FPS (1536 SPF)
    Bit depth                   : 16 bits
    Compression mode            : Lossy
    Stream size                 : 221 MiB (13%)
    Title                       : Inglés [CinemaniaHDD]
    Language                    : English
    Service kind                : Complete Main
    Default                     : No
    Forced                      : No

    Text #1
    ID                          : 4
    Format                      : UTF-8
    Codec ID                    : S_TEXT/UTF8
    Codec ID/Info               : UTF-8 Plain Text
    Duration                    : 1 h 16 min
    Bit rate                    : 52 b/s
    Count of elements           : 1104
    Stream size                 : 29.2 KiB (0%)
    Title                       : Español latino [CinemaniaHDD]
    Language                    : Spanish
    Default                     : No
    Forced                      : No

    Text #2
    ID                          : 5
    Format                      : UTF-8
    Codec ID                    : S_TEXT/UTF8
    Codec ID/Info               : UTF-8 Plain Text
    Duration                    : 1 h 17 min
    Bit rate                    : 67 b/s
    Count of elements           : 1599
    Stream size                 : 38.2 KiB (0%)
    Title                       : Inglés [CinemaniaHDD]
    Language                    : English
    Default                     : No
    Forced                      : No

     

  • Peso: 1.72 GiB

Sinopsis

Durante la noche de Halloween un grupo de universitarios se queda atrapado en un misterioso juego de mesa que hace que sus miedos y secretos más oscuros cobren vida. Los jóvenes tendrán que jugar para escapar y ganar para sobrevivir.

Español Laino AC3 2.0 Capturado – Ingles AC3 5.1 WEB-DL

Ficha técnica

Video trailer de la película

Enlaces de descarga

Rip de Bluray

Descargar Uncanny Annie (2019) WEB-DL 1080p Latino




Aportes de DPeliculasHDmega la pass es:dpeliculashdmega.org Aportes de CinemaniaHD la pass es:cinemaniahdd.com Aportes recientes:cinemaniahdd.net
Guardado en : Película de TV , Terror

Películas relacionadas

  • Appendage (2023) WEB-DL 1080p Latino

    Appendage (2023) WEB-DL 1080p Latino

    2023
    Appendage (2023) WEB-DL 1080p Latino

    1h 34m 2023

    Después de llegar a un punto de ruptura, los pensamientos internos de Hannah se materializan en una...

    Director: Anna Zlokovic

    Género: Comedia

    Actores: Tristan Turner

  • Insidious Capitulo 3 (2015) REMUX 1080p Latino-CMHDD

    Insidious Capitulo 3 (2015) REMUX 1080p Latino-CMHDD

    2015
    Insidious Capitulo 3 (2015) REMUX 1080p Latino-CMHDD

    1h 38m 2015

    Descargar Insidious Capitulo 3 (2015) REMUX 1080p Latino-CMHDD. Elise Rainier (Lin Shaye) acepta a regañadientes...

    Director: Phil DeSanti

    Género: Misterio

    Actores: Tom Gallop

  • Insidious Capitulo 2 (2013) REMUX 1080p Latino-CMHDD

    Insidious Capitulo 2 (2013) REMUX 1080p Latino-CMHDD

    2013
    Insidious Capitulo 2 (2013) REMUX 1080p Latino-CMHDD

    1h 45m 2013

    Descargar Insidious Capitulo 2 (2013) REMUX 1080p Latino-CMHDD. Josh y Renai Lambert se han mudado con...

    Director: Renetta G. Amador

    Género: Remux

    Actores: Tyler Griffin

descargar Uncanny Annie (2019) WEB-DL 1080p Latino WEBDL 1080p gratis, Uncanny Annie (2019) WEB-DL 1080p Latino WEBDL mega 1 link, Uncanny Annie (2019) WEB-DL 1080p Latino WEBDL pelicula completa, descargar Uncanny Annie (2019) WEB-DL 1080p Latino WEBDL gratis en mega.

Uncanny Annie (2019) WEB-DL 1080p Latino pelicula full hd, Uncanny Annie (2019) WEB-DL 1080p Latino mega latino, Uncanny Annie (2019) WEB-DL 1080p Latino 4k latino, Uncanny Annie (2019) WEB-DL 1080p Latino pelicula completa, Uncanny Annie (2019) WEB-DL 1080p Latino descargar gratis, descargar Uncanny Annie (2019) WEB-DL 1080p Latino pelicula latino, Uncanny Annie (2019) WEB-DL 1080p Latino 1 link mega, Uncanny Annie (2019) WEB-DL 1080p Latino 1 link google drive, Uncanny Annie (2019) WEB-DL 1080p Latino hd 1080p latino.
Comentarios 0