×

¿Problemas para descargar con Mozilla, EDGE? Deshabilita la opción "Abrir vinculos en una pestaña nueva" tal como lo muestra ésta imagen.

Unbreakable (2000) REMUX 4K HDR Latino – CMHDD

412 vistas

Información de Unbreakable (2000) REMUX 4K HDR Latino – CMHDD

Datos de la película

  • Calidad: 4K HDR
  • Audio: Español Latino AC3 5.1 BLURAY - Ingles DTS 5.1 BLURAY
  • Subtitulos: Español Latino PGS
  • Resolución: 3840x2160p
  • Formato: MKV
  • Codec: H.264
  • Encoder: Dracarys
  • Mediainfo: Clic para Mostrar Datos Ver
  • Format                      : Matroska
    Format version              : Version 4
    File size                   : 46.1 GiB
    Duration                    : 1 h 46 min
    Overall bit rate mode       : Variable
    Overall bit rate            : 61.8 Mb/s
    Movie name                  : Unbreakable (2000) REMUX 4K HDR Latino - CMHDD
    Encoded date                : UTC 2021-10-03 21:14:03
    Writing application         : mkvmerge v17.0.0 ('Be Ur Friend') 64-bit
    Writing library             : libebml v1.3.5 + libmatroska v1.4.8

    Video
    ID                          : 1
    Format                      : HEVC
    Format/Info                 : High Efficiency Video Coding
    Format profile              : Main 10@L5.1@High
    HDR format                  : SMPTE ST 2086, HDR10 compatible
    Codec ID                    : V_MPEGH/ISO/HEVC
    Duration                    : 1 h 46 min
    Bit rate                    : 57.0 Mb/s
    Width                       : 3 840 pixels
    Height                      : 2 160 pixels
    Display aspect ratio        : 16:9
    Frame rate mode             : Constant
    Frame rate                  : 23.976 (24000/1001) FPS
    Color space                 : YUV
    Chroma subsampling          : 4:2:0 (Type 2)
    Bit depth                   : 10 bits
    Bits/(Pixel*Frame)          : 0.287
    Stream size                 : 42.5 GiB (92%)
    Writing library             : ATEME Titan File 3.9.6 (4.9.6.2)        
    Default                     : Yes
    Forced                      : No
    Color range                 : Limited
    Color primaries             : BT.2020
    Transfer characteristics    : PQ
    Matrix coefficients         : BT.2020 non-constant
    Mastering display color pri : Display P3
    Mastering display luminance : min: 0.0001 cd/m2, max: 1000 cd/m2

    Audio #1
    ID                          : 2
    Format                      : DTS ES XLL
    Format/Info                 : Digital Theater Systems
    Commercial name             : DTS-HD Master Audio
    Codec ID                    : A_DTS
    Duration                    : 1 h 46 min
    Bit rate mode               : Variable
    Bit rate                    : 3 873 kb/s
    Channel(s)                  : 6 channels
    Channel(s)_Original         : 7 channels
    ChannelLayout_Original      : C L R Ls Rs LFE Cs
    Sampling rate               : 48.0 kHz
    Frame rate                  : 93.750 FPS (512 SPF)
    Bit depth                   : 24 bits
    Compression mode            : Lossless
    Stream size                 : 2.89 GiB (6%)
    Language                    : English
    Default                     : No
    Forced                      : No

    Audio #2
    ID                          : 3
    Format                      : AC-3
    Format/Info                 : Audio Coding 3
    Commercial name             : Dolby Digital
    Codec ID                    : A_AC3
    Duration                    : 1 h 46 min
    Bit rate mode               : Constant
    Bit rate                    : 320 kb/s
    Channel(s)                  : 2 channels
    Channel layout              : L R
    Sampling rate               : 48.0 kHz
    Frame rate                  : 31.250 FPS (1536 SPF)
    Compression mode            : Lossy
    Stream size                 : 244 MiB (1%)
    Language                    : English
    Service kind                : Complete Main
    Default                     : No
    Forced                      : No

    Audio #3
    ID                          : 4
    Format                      : AC-3
    Format/Info                 : Audio Coding 3
    Commercial name             : Dolby Digital
    Format settings             : Dolby Surround EX
    Codec ID                    : A_AC3
    Duration                    : 1 h 46 min
    Bit rate mode               : Constant
    Bit rate                    : 640 kb/s
    Channel(s)                  : 6 channels
    Channel layout              : L R C LFE Ls Rs
    Sampling rate               : 48.0 kHz
    Frame rate                  : 31.250 FPS (1536 SPF)
    Compression mode            : Lossy
    Stream size                 : 488 MiB (1%)
    Language                    : Spanish
    Service kind                : Complete Main
    Default                     : Yes
    Forced                      : No

    Text #1
    ID                          : 5
    Format                      : PGS
    Muxing mode                 : zlib
    Codec ID                    : S_HDMV/PGS
    Codec ID/Info               : Picture based subtitle format used on BDs/HD-DVDs
    Duration                    : 1 h 41 min
    Bit rate                    : 24.8 kb/s
    Count of elements           : 1850
    Stream size                 : 18.0 MiB (0%)
    Language                    : Spanish
    Default                     : No
    Forced                      : No

    Text #2
    ID                          : 6
    Format                      : PGS
    Muxing mode                 : zlib
    Codec ID                    : S_HDMV/PGS
    Codec ID/Info               : Picture based subtitle format used on BDs/HD-DVDs
    Duration                    : 1 h 36 min
    Bit rate                    : 431 b/s
    Count of elements           : 32
    Stream size                 : 306 KiB (0%)
    Language                    : Spanish
    Default                     : No
    Forced                      : No

    Menu
    00:00:00.000                : en:Chapter 1
    00:08:44.148                : en:Chapter 2
    00:09:51.340                : en:Chapter 3
    00:14:57.730                : en:Chapter 4
    00:16:31.615                : en:Chapter 5
    00:20:58.006                : en:Chapter 6
    00:25:05.587                : en:Chapter 7
    00:32:26.736                : en:Chapter 8
    00:34:37.825                : en:Chapter 9
    00:36:29.061                : en:Chapter 10
    00:40:56.370                : en:Chapter 11
    00:43:22.641                : en:Chapter 12
    00:49:59.705                : en:Chapter 13
    00:54:53.707                : en:Chapter 14
    00:56:58.081                : en:Chapter 15
    01:00:00.763                : en:Chapter 16
    01:02:52.059                : en:Chapter 17
    01:04:35.705                : en:Chapter 18
    01:07:37.928                : en:Chapter 19
    01:12:17.499                : en:Chapter 20
    01:13:29.113                : en:Chapter 21
    01:17:33.982                : en:Chapter 22
    01:22:20.352                : en:Chapter 23
    01:31:39.285                : en:Chapter 24
    01:33:14.255                : en:Chapter 25
    01:35:53.748                : en:Chapter 26
    01:37:50.656                : en:Chapter 27
    01:42:16.130                : en:Chapter 28

  • Peso: 46.1 GiB

Sinopsis

Philadelphia. Año 1961. Un niño negro acaba de nacer en unos grandes almacenes. Un médico acude a ver como se encuentran tanto la madre como el bebé, y horrorizado le pregunta a la mujer si se le ha caído el niño, ya que tiene tanto los brazos como las piernas fracturadas. Philadelphia. Año 2000. Un hombre llamado David Dunn está en el expreso que va de Nueva York a Philadelphia camino de su casa después de una entrevista de trabajo en la ciudad de los rascacielos. En el tren entabla conversación con una atractiva mujer, pero ésta cree que quiere ligar y se cambia de asiento. Un momento después se produce un dramático accidente.

Ficha técnica

Video trailer de la película

Enlaces de descarga

Rip de Bluray

Descargar Unbreakable (2000) REMUX 4K HDR Latino – CMHDD




Aportes de DPeliculasHDmega la pass es:dpeliculashdmega.org Aportes de CinemaniaHD la pass es:cinemaniahdd.com Aportes recientes:cinemaniahdd.net
Guardado en : Drama , Misterio , Suspenso

Películas relacionadas

  • Red de venganza (2023) HD 1080p Latino

    Red de venganza (2023) HD 1080p Latino

    2023
    Red de venganza (2023) HD 1080p Latino

    1h 25m 2023

    Descargar Red de venganza (2023) HD 1080p Latino. Analiza los problemas que surgen entre una madre (Summer...

    Director: Amy Redford

    Género: Drama

    Actores: Summer Phoenix

  • Red de venganza (2023) REMUX 1080p Latino

    Red de venganza (2023) REMUX 1080p Latino

    2023
    Red de venganza (2023) REMUX 1080p Latino

    1h 25m 2023

    Descargar Red de venganza (2023) REMUX 1080p Latino. Analiza los problemas que surgen entre una madre...

    Director: Amy Redford

    Género: Drama

    Actores: Summer Phoenix

  • Recuerdos Mortales (2024) WEB-DL 1080p Latino

    Recuerdos Mortales (2024) WEB-DL 1080p Latino

    2024
    Recuerdos Mortales (2024) WEB-DL 1080p Latino

    1h 52m 2024

    Descargar Recuerdos Mortales (2024) WEB-DL 1080p Latino. Después de someterse a un tratamiento de vanguardia...

    Director: Adam Cooper

    Género: Crimen

    Actores: Tommy Flanagan

descargar Unbreakable (2000) REMUX 4K HDR Latino – CMHDD 4K HDR 1080p gratis, Unbreakable (2000) REMUX 4K HDR Latino – CMHDD 4K HDR mega 1 link, Unbreakable (2000) REMUX 4K HDR Latino – CMHDD 4K HDR pelicula completa, descargar Unbreakable (2000) REMUX 4K HDR Latino – CMHDD 4K HDR gratis en mega.

Unbreakable (2000) REMUX 4K HDR Latino – CMHDD pelicula full hd, Unbreakable (2000) REMUX 4K HDR Latino – CMHDD mega latino, Unbreakable (2000) REMUX 4K HDR Latino – CMHDD 4k latino, Unbreakable (2000) REMUX 4K HDR Latino – CMHDD pelicula completa, Unbreakable (2000) REMUX 4K HDR Latino – CMHDD descargar gratis, descargar Unbreakable (2000) REMUX 4K HDR Latino – CMHDD pelicula latino, Unbreakable (2000) REMUX 4K HDR Latino – CMHDD 1 link mega, Unbreakable (2000) REMUX 4K HDR Latino – CMHDD 1 link google drive, Unbreakable (2000) REMUX 4K HDR Latino – CMHDD hd 1080p latino.