×

¿Problemas para descargar con Mozilla, EDGE? Deshabilita la opción "Abrir vinculos en una pestaña nueva" tal como lo muestra ésta imagen.

Unabomber: Terrorista (2021) PLACEBO Full HD 1080p Latino

503 vistas

Información de Unabomber: Terrorista (2021) PLACEBO Full HD 1080p Latino

Datos de la película

  • Calidad: Full 1080p
  • Audio: Español Latino AC3 2.0 WEB-DL - Ingles DTS 5.1 BLURAY
  • Subtitulos: Español Latino PGS - Ingles PGS
  • Resolución: 1920x1080p
  • Formato: MKV
  • Codec: H.264
  • Encoder: Melkor
  • Mediainfo: Clic para Mostrar Datos Ver
  • Unabomber. Terrorista (2021) PLACEBO 1080p Latino.mkv
    Format                      : Matroska
    Format version              : Version 4
    File size                   : 8.52 GiB
    Duration                    : 2 h 2 min
    Overall bit rate            : 9 926 kb/s
    Movie name                  : Ted K (2021) CinemaniaHDD.Net
    Encoded date                : UTC 2022-07-07 05:48:18
    Writing application         : mkvmerge v56.1.0 ('My Friend') 64-bit
    Writing library             : libebml v1.4.2 + libmatroska v1.6.4
    Attachments                 : CINEMANIAHD.png

    Video
    ID                          : 1
    Format                      : AVC
    Format/Info                 : Advanced Video Codec
    Format profile              : High@L4.1
    Format settings             : CABAC / 4 Ref Frames
    Format settings, CABAC      : Yes
    Format settings, Reference  : 4 frames
    Codec ID                    : V_MPEG4/ISO/AVC
    Duration                    : 2 h 2 min
    Bit rate                    : 8 145 kb/s
    Width                       : 1 920 pixels
    Height                      : 1 080 pixels
    Display aspect ratio        : 16:9
    Frame rate mode             : Constant
    Frame rate                  : 23.976 (24000/1001) FPS
    Color space                 : YUV
    Chroma subsampling          : 4:2:0
    Bit depth                   : 8 bits
    Scan type                   : Progressive
    Bits/(Pixel*Frame)          : 0.164
    Stream size                 : 6.99 GiB (82%)
    Title                       : Full HD1080p [CinemaniaHDD]
    Writing library             : x264 core 163 r3059 b684ebe0
    Encoding settings           : cabac=1 / ref=4 / deblock=1:0:0 / analyse=0x3:0x133 / me=tesa / subme=11 / psy=1 / psy_rd=1.00:0.00 / mixed_ref=1 / me_range=24 / chroma_me=1 / trellis=2 / 8x8dct=1 / cqm=0 / deadzone=21,11 / fast_pskip=0 / chroma_qp_offset=-2 / threads=24 / lookahead_threads=6 / sliced_threads=0 / nr=0 / decimate=1 / interlaced=0 / bluray_compat=0 / constrained_intra=0 / bframes=16 / b_pyramid=2 / b_adapt=2 / b_bias=0 / direct=3 / weightb=1 / open_gop=0 / weightp=2 / keyint=240 / keyint_min=24 / scenecut=40 / intra_refresh=0 / rc_lookahead=60 / rc=crf / mbtree=1 / crf=19.0 / qcomp=0.60 / qpmin=0 / qpmax=69 / qpstep=4 / vbv_maxrate=62500 / vbv_bufsize=78125 / crf_max=0.0 / nal_hrd=none / filler=0 / ip_ratio=1.40 / aq=1:1.00
    Default                     : Yes
    Forced                      : Yes
    Color range                 : Limited
    Color primaries             : BT.709
    Transfer characteristics    : BT.709
    Matrix coefficients         : BT.709

    Audio #1
    ID                          : 2
    Format                      : AC-3
    Format/Info                 : Audio Coding 3
    Commercial name             : Dolby Digital
    Codec ID                    : A_AC3
    Duration                    : 2 h 2 min
    Bit rate mode               : Constant
    Bit rate                    : 256 kb/s
    Channel(s)                  : 2 channels
    Channel layout              : L R
    Sampling rate               : 48.0 kHz
    Frame rate                  : 31.250 FPS (1536 SPF)
    Compression mode            : Lossy
    Stream size                 : 225 MiB (3%)
    Title                       : Español Latino [CinemaniaHDD]
    Language                    : Spanish
    Service kind                : Complete Main
    Default                     : Yes
    Forced                      : Yes

    Audio #2
    ID                          : 3
    Format                      : DTS
    Format/Info                 : Digital Theater Systems
    Codec ID                    : A_DTS
    Duration                    : 2 h 2 min
    Bit rate mode               : Constant
    Bit rate                    : 1 509 kb/s
    Channel(s)                  : 6 channels
    Channel layout              : C L R Ls Rs LFE
    Sampling rate               : 48.0 kHz
    Frame rate                  : 93.750 FPS (512 SPF)
    Bit depth                   : 24 bits
    Compression mode            : Lossy
    Stream size                 : 1.29 GiB (15%)
    Title                       : Ingles [CinemaniaHDD]
    Language                    : English
    Default                     : No
    Forced                      : No

    Text #1
    ID                          : 4
    Format                      : PGS
    Muxing mode                 : zlib
    Codec ID                    : S_HDMV/PGS
    Codec ID/Info               : Picture based subtitle format used on BDs/HD-DVDs
    Duration                    : 2 h 2 min
    Bit rate                    : 19.0 kb/s
    Count of elements           : 1944
    Stream size                 : 16.6 MiB (0%)
    Title                       : Español-PGS [CinemaniaHDD]
    Language                    : Spanish
    Default                     : No
    Forced                      : No

    Text #2
    ID                          : 5
    Format                      : PGS
    Muxing mode                 : zlib
    Codec ID                    : S_HDMV/PGS
    Codec ID/Info               : Picture based subtitle format used on BDs/HD-DVDs
    Duration                    : 2 h 2 min
    Bit rate                    : 19.1 kb/s
    Count of elements           : 2616
    Stream size                 : 16.8 MiB (0%)
    Title                       : Ingles-PGS [CinemaniaHDD]
    Language                    : English
    Default                     : No
    Forced                      : No

    Text #3
    ID                          : 6
    Format                      : UTF-8
    Codec ID                    : S_TEXT/UTF8
    Codec ID/Info               : UTF-8 Plain Text
    Duration                    : 1 h 59 min
    Bit rate                    : 1 b/s
    Count of elements           : 53
    Stream size                 : 1.66 KiB (0%)
    Title                       : Forzados-SRT [CinemaniaHDD]
    Language                    : Spanish
    Default                     : Yes
    Forced                      : Yes

    Text #4
    ID                          : 7
    Format                      : UTF-8
    Codec ID                    : S_TEXT/UTF8
    Codec ID/Info               : UTF-8 Plain Text
    Duration                    : 1 h 59 min
    Bit rate                    : 39 b/s
    Count of elements           : 810
    Stream size                 : 34.6 KiB (0%)
    Title                       : Español-SRT [CinemaniaHDD]
    Language                    : Spanish
    Default                     : No
    Forced                      : No

    Menu
    00:00:00.000                : Chapter 01
    00:17:19.538                : Chapter 02
    00:35:35.216                : Chapter 03
    00:53:49.476                : Chapter 04
    01:10:18.631                : Chapter 05
    01:29:48.216                : Chapter 06
    01:43:59.900                : Chapter 07
    01:59:43.051                : Chapter 08

  • Peso: 8.52 GiB

Sinopsis

Descargar Unabomber: Terrorista (2021) PLACEBO Full HD 1080p Latino. La verdadera historia de Ted Kaczynski, el infame Unabomber, que quiere destruir la tecnología moderna para crear un mundo para sí mismo en el desierto de Montana.

Ficha técnica

Video trailer de la película

Enlaces de descarga

Rip de Bluray

Descargar Unabomber: Terrorista (2021) PLACEBO Full HD 1080p Latino




Aportes de DPeliculasHDmega la pass es:dpeliculashdmega.org Aportes de CinemaniaHD la pass es:cinemaniahdd.com

Películas relacionadas

  • Sublime (2007) REMUX 1080p SUB

    Sublime (2007) REMUX 1080p SUB

    2007
    Sublime (2007) REMUX 1080p SUB

    1h 53m 2007

    Descargar Sublime (2007) REMUX 1080p SUB. George Grieves ingresa en el hospital de Mt Abbadon para hacerse...

    Director: Tony Krantz

    Género: Remux

    Actores: Tom Cavanagh

  • Jamaica bajo cero (1993) REMUX 1080p Latino

    Jamaica bajo cero (1993) REMUX 1080p Latino

    1993
    Jamaica bajo cero (1993) REMUX 1080p Latino

    1h 38m 1993

    Descargar Jamaica bajo cero (1993) REMUX 1080p Latino. Derice, Sanka, Junio Bevil y Yul son cuatro atletas...

    Director: Michael D. Moore

    Género: Aventura

    Actores: Winston Stona

  • Acoso Sexual (1994) REMUX 1080p Latino

    Acoso Sexual (1994) REMUX 1080p Latino

    1994
    Acoso Sexual (1994) REMUX 1080p Latino

    2h 3m 1994

    Descargar Acoso Sexual (1994) REMUX 1080p Latino. Tom Sanders es un maduro y atractivo ejecutivo que...

    Director: Shery Blanc

    Género: Crimen

    Actores: Wayne Duvall

  • Baby: El aprendiz del crimen (2017) REMUX 1080p Latino

    Baby: El aprendiz del crimen (2017) REMUX 1080p Latino

    2017
    Baby: El aprendiz del crimen (2017) REMUX 1080p Latino

    1h 55m 2017

    Descargar Baby: El aprendiz del crimen (2017) REMUX 1080p Latino. Baby, un joven y talentoso conductor...

    Director: Walter Gasparovic

    Género: Acción

    Actores: Wilbur Fitzgerald

  • El Rey De Las Sombras (2023) NF WEB-DL 1080p Latino

    El Rey De Las Sombras (2023) NF WEB-DL 1080p Latino

    2023
    El Rey De Las Sombras (2023) NF WEB-DL 1080p Latino

    1h 29m 2023

    Descargar El Rey De Las Sombras (2023) NF WEB-DL 1080p Latino. Tras la muerte de su padre, dos hermanastros...

    Director: Maxence Robin

    Género: Crimen

    Actores: Tatiana Rojo

descargar Unabomber: Terrorista (2021) PLACEBO Full HD 1080p Latino Full 1080p 1080p gratis, Unabomber: Terrorista (2021) PLACEBO Full HD 1080p Latino Full 1080p mega 1 link, Unabomber: Terrorista (2021) PLACEBO Full HD 1080p Latino Full 1080p pelicula completa, descargar Unabomber: Terrorista (2021) PLACEBO Full HD 1080p Latino Full 1080p gratis en mega.

Unabomber: Terrorista (2021) PLACEBO Full HD 1080p Latino pelicula full hd, Unabomber: Terrorista (2021) PLACEBO Full HD 1080p Latino mega latino, Unabomber: Terrorista (2021) PLACEBO Full HD 1080p Latino 4k latino, Unabomber: Terrorista (2021) PLACEBO Full HD 1080p Latino pelicula completa, Unabomber: Terrorista (2021) PLACEBO Full HD 1080p Latino descargar gratis, descargar Unabomber: Terrorista (2021) PLACEBO Full HD 1080p Latino pelicula latino, Unabomber: Terrorista (2021) PLACEBO Full HD 1080p Latino 1 link mega, Unabomber: Terrorista (2021) PLACEBO Full HD 1080p Latino 1 link google drive, Unabomber: Terrorista (2021) PLACEBO Full HD 1080p Latino hd 1080p latino.
Comentarios 0