×

¿Problemas para descargar con Mozilla, EDGE? Deshabilita la opción "Abrir vinculos en una pestaña nueva" tal como lo muestra ésta imagen.

Una voz contra el poder (2020) REMUX 1080i Latino

124 vistas

Información de Una voz contra el poder (2020) REMUX 1080i Latino

Datos de la película

  • Calidad: Full 1080p
  • Audio: Español Latino AC3 5.1 WEB-DL - Ingles DTS 5.1 BLURAY
  • Subtitulos: Español Latino SRT- FORZADOS SRT
  • Resolución: 1920x1080i
  • Formato: MKV
  • Codec: H.264
  • Encoder: Melkor
  • Mediainfo: Clic para Mostrar Datos Ver
  • Percy. Una Voz Contra El Poder (2020) REMUX 1080i Latino.mkv
    Format                      : Matroska
    Format version              : Version 4
    File size                   : 19.2 GiB
    Duration                    : 1 h 35 min
    Overall bit rate mode       : Variable
    Overall bit rate            : 28.7 Mb/s
    Movie name                  : Percy (2020) CinemaniaHDD.Net
    Encoded date                : UTC 2022-07-17 05:27:01
    Writing application         : mkvmerge v56.1.0 ('My Friend') 64-bit
    Writing library             : libebml v1.4.2 + libmatroska v1.6.4

    Video
    ID                          : 1
    Format                      : AVC
    Format/Info                 : Advanced Video Codec
    Format profile              : High@L4.1
    Format settings             : CABAC / 4 Ref Frames
    Format settings, CABAC      : Yes
    Format settings, Reference  : 4 frames
    Format settings, picture st : Frame
    Codec ID                    : V_MPEG4/ISO/AVC
    Duration                    : 1 h 35 min
    Bit rate mode               : Variable
    Bit rate                    : 26.2 Mb/s
    Maximum bit rate            : 35.0 Mb/s
    Width                       : 1 920 pixels
    Height                      : 1 080 pixels
    Display aspect ratio        : 16:9
    Frame rate mode             : Constant
    Frame rate                  : 25.000 FPS
    Color space                 : YUV
    Chroma subsampling          : 4:2:0
    Bit depth                   : 8 bits
    Scan type                   : Interlaced
    Scan type, store method     : Interleaved fields
    Scan order                  : Top Field First
    Bits/(Pixel*Frame)          : 0.506
    Stream size                 : 17.5 GiB (91%)
    Title                       : REMUX HD1080p [CinemaniaHDD]
    Default                     : Yes
    Forced                      : Yes

    Audio #1
    ID                          : 2
    Format                      : AC-3
    Format/Info                 : Audio Coding 3
    Commercial name             : Dolby Digital
    Codec ID                    : A_AC3
    Duration                    : 1 h 35 min
    Bit rate mode               : Constant
    Bit rate                    : 640 kb/s
    Channel(s)                  : 6 channels
    Channel layout              : L R C LFE Ls Rs
    Sampling rate               : 48.0 kHz
    Frame rate                  : 31.250 FPS (1536 SPF)
    Compression mode            : Lossy
    Stream size                 : 437 MiB (2%)
    Title                       : Español Latino [CinemaniaHDD]
    Language                    : Spanish
    Service kind                : Complete Main
    Default                     : Yes
    Forced                      : Yes

    Audio #2
    ID                          : 3
    Format                      : DTS XLL
    Format/Info                 : Digital Theater Systems
    Commercial name             : DTS-HD Master Audio
    Codec ID                    : A_DTS
    Duration                    : 1 h 35 min
    Bit rate mode               : Variable
    Bit rate                    : 1 836 kb/s
    Channel(s)                  : 6 channels
    Channel layout              : C L R Ls Rs LFE
    Sampling rate               : 48.0 kHz
    Frame rate                  : 93.750 FPS (512 SPF)
    Bit depth                   : 16 bits
    Compression mode            : Lossless
    Stream size                 : 1.23 GiB (6%)
    Title                       : Ingles [CinemaniaHDD]
    Language                    : English
    Default                     : No
    Forced                      : No

    Text #1
    ID                          : 4
    Format                      : UTF-8
    Codec ID                    : S_TEXT/UTF8
    Codec ID/Info               : UTF-8 Plain Text
    Duration                    : 38 min 26 s
    Bit rate                    : 0 b/s
    Count of elements           : 8
    Stream size                 : 243 Bytes (0%)
    Title                       : Forzados-SRT [CinemaniaHDD]
    Language                    : Spanish
    Default                     : Yes
    Forced                      : Yes

    Text #2
    ID                          : 5
    Format                      : UTF-8
    Codec ID                    : S_TEXT/UTF8
    Codec ID/Info               : UTF-8 Plain Text
    Duration                    : 1 h 27 min
    Bit rate                    : 64 b/s
    Count of elements           : 1300
    Stream size                 : 41.5 KiB (0%)
    Title                       : Español-SRT [CinemaniaHDD]
    Language                    : Spanish
    Default                     : No
    Forced                      : No

    Text #3
    ID                          : 6
    Format                      : UTF-8
    Codec ID                    : S_TEXT/UTF8
    Codec ID/Info               : UTF-8 Plain Text
    Duration                    : 1 h 26 min
    Bit rate                    : 70 b/s
    Count of elements           : 1274
    Stream size                 : 44.7 KiB (0%)
    Title                       : Ingles [CinemaniaHDD]
    Language                    : English
    Default                     : No
    Forced                      : No

    Menu
    00:00:00.000                : Chapter 01
    00:05:02.000                : Chapter 02
    00:16:08.000                : Chapter 03
    00:26:56.000                : Chapter 04
    00:37:55.000                : Chapter 05
    00:47:19.000                : Chapter 06
    00:59:55.000                : Chapter 07
    01:20:31.400                : Chapter 08

  • Peso: 19.2 GiB

Sinopsis

Descargar Una voz contra el poder (2020) REMUX 1080i Latino. Percy Schmeiser, un agricultor de tercera generación, es demandado por un gigante corporativo por supuestamente usar sus semillas patentadas. Con pocos recursos para librar una batalla legal, Percy une fuerzas con el prometedor abogado Jackson Weaver y la activista medioambiental Rebecca Salcau en un caso monumental que lleva hasta la Corte Suprema.

Nota: El source es un Bluray Original BD25 con barrido entrelazado (1080i)

Ficha técnica

Video trailer de la película

Enlaces de descarga

Rip de Bluray

Descargar Una voz contra el poder (2020) REMUX 1080i Latino




Aportes de DPeliculasHDmega la pass es:dpeliculashdmega.org Aportes de CinemaniaHD la pass es:cinemaniahdd.com
Guardado en : Drama , Remux

Películas relacionadas

  • Wire Room (2022) REMUX 1080p Latino

    Wire Room (2022) REMUX 1080p Latino

    2022
    Wire Room (2022) REMUX 1080p Latino

    1h 37m 2022

    Descargar Wire Room (2022) REMUX 1080p Latino. Mientras está de servicio en la sala de cables, un agente...

    Director: Matt Eskandari

    Género: Acción

    Actores: Texas Battle

  • Alarido (2022) REMUX 1080p Latino

    Alarido (2022) REMUX 1080p Latino

    2022
    Alarido (2022) REMUX 1080p Latino

    1h 29m 2022

    Descargar Alarido (2022) REMUX 1080p Latino. Una joven madre soltera es cautiva junto con sus dos hijos...

    Director: D.J. Caruso

    Género: Remux

    Actores: Vincent Gallo

  • After: Amor infinito (2022) AMZN WEB-DL 1080p Latino

    After: Amor infinito (2022) AMZN WEB-DL 1080p Latino

    2022
    After: Amor infinito (2022) AMZN WEB-DL 1080p Latino

    1h 35m 2022

    Descargar After: Amor infinito (2022) AMZN WEB-DL 1080p Latino. El amor de Tessa y Hardin nunca ha sido...

    Director: Castille Landon

    Género: Drama

    Actores: Velizar Nikolaev Biney

descargar Una voz contra el poder (2020) REMUX 1080i Latino Full 1080p 1080p gratis, Una voz contra el poder (2020) REMUX 1080i Latino Full 1080p mega 1 link, Una voz contra el poder (2020) REMUX 1080i Latino Full 1080p pelicula completa, descargar Una voz contra el poder (2020) REMUX 1080i Latino Full 1080p gratis en mega.

Una voz contra el poder (2020) REMUX 1080i Latino pelicula full hd, Una voz contra el poder (2020) REMUX 1080i Latino mega latino, Una voz contra el poder (2020) REMUX 1080i Latino 4k latino, Una voz contra el poder (2020) REMUX 1080i Latino pelicula completa, Una voz contra el poder (2020) REMUX 1080i Latino descargar gratis, descargar Una voz contra el poder (2020) REMUX 1080i Latino pelicula latino, Una voz contra el poder (2020) REMUX 1080i Latino 1 link mega, Una voz contra el poder (2020) REMUX 1080i Latino 1 link google drive, Una voz contra el poder (2020) REMUX 1080i Latino hd 1080p latino.
Comentarios 0