×

¿Problemas para descargar con Mozilla, EDGE? Deshabilita la opción "Abrir vinculos en una pestaña nueva" tal como lo muestra ésta imagen.

Una Sirena En París (2020) PLACEBO Full HD 1080p Latino

170 vistas

Información de Una Sirena En París (2020) PLACEBO Full HD 1080p Latino

Datos de la película

  • Calidad: Full 1080p
  • Audio: Se especifica abajo de la Sinopsis
  • Subtitulos: Español Latino SRT- FORZADOS SRT
  • Resolución: 1920x1080p
  • Formato: MKV
  • Codec: H.264
  • Encoder: Melkor
  • Mediainfo: Clic para Mostrar Datos Ver
  • Una Sirena En Paris (2020) PLACEBO 1080p Latino.mkv
    Format                      : Matroska
    Format version              : Version 4
    File size                   : 5.75 GiB
    Duration                    : 1 h 42 min
    Overall bit rate mode       : Variable
    Overall bit rate            : 8 052 kb/s
    Movie name                  : Une sirène à Paris (2020) CinemaniaHDD.Net
    Encoded date                : UTC 2021-10-23 15:51:11
    Writing application         : mkvmerge v56.1.0 ('My Friend') 64-bit
    Writing library             : libebml v1.4.2 + libmatroska v1.6.4
    Attachments                 : CINEMANIAHD.png

    Video
    ID                          : 1
    Format                      : AVC
    Format/Info                 : Advanced Video Codec
    Format profile              : High@L4.1
    Format settings             : CABAC / 4 Ref Frames
    Format settings, CABAC      : Yes
    Format settings, Reference  : 4 frames
    Codec ID                    : V_MPEG4/ISO/AVC
    Duration                    : 1 h 42 min
    Bit rate                    : 3 838 kb/s
    Width                       : 1 920 pixels
    Height                      : 1 080 pixels
    Display aspect ratio        : 16:9
    Frame rate mode             : Constant
    Frame rate                  : 24.000 FPS
    Color space                 : YUV
    Chroma subsampling          : 4:2:0
    Bit depth                   : 8 bits
    Scan type                   : Progressive
    Bits/(Pixel*Frame)          : 0.077
    Stream size                 : 2.74 GiB (48%)
    Title                       : Full HD1080p [CinemaniaHDD]
    Writing library             : x264 core 163 r3059 b684ebe0
    Encoding settings           : cabac=1 / ref=4 / deblock=1:0:0 / analyse=0x3:0x133 / me=tesa / subme=11 / psy=1 / psy_rd=1.00:0.00 / mixed_ref=1 / me_range=24 / chroma_me=1 / trellis=2 / 8x8dct=1 / cqm=0 / deadzone=21,11 / fast_pskip=0 / chroma_qp_offset=-2 / threads=24 / lookahead_threads=6 / sliced_threads=0 / nr=0 / decimate=1 / interlaced=0 / bluray_compat=0 / constrained_intra=0 / bframes=16 / b_pyramid=2 / b_adapt=2 / b_bias=0 / direct=3 / weightb=1 / open_gop=0 / weightp=2 / keyint=240 / keyint_min=24 / scenecut=40 / intra_refresh=0 / rc_lookahead=60 / rc=crf / mbtree=1 / crf=20.0 / qcomp=0.60 / qpmin=0 / qpmax=69 / qpstep=4 / vbv_maxrate=62500 / vbv_bufsize=78125 / crf_max=0.0 / nal_hrd=none / filler=0 / ip_ratio=1.40 / aq=1:1.00
    Default                     : Yes
    Forced                      : Yes
    Color range                 : Limited
    Color primaries             : BT.709
    Transfer characteristics    : BT.709
    Matrix coefficients         : BT.709

    Audio #1
    ID                          : 2
    Format                      : AC-3
    Format/Info                 : Audio Coding 3
    Commercial name             : Dolby Digital
    Codec ID                    : A_AC3
    Duration                    : 1 h 42 min
    Bit rate mode               : Constant
    Bit rate                    : 448 kb/s
    Channel(s)                  : 6 channels
    Channel layout              : L R C LFE Ls Rs
    Sampling rate               : 48.0 kHz
    Frame rate                  : 31.250 FPS (1536 SPF)
    Compression mode            : Lossy
    Stream size                 : 328 MiB (6%)
    Title                       : Español Latino [CinemaniaHDD]
    Language                    : Spanish
    Service kind                : Complete Main
    Default                     : Yes
    Forced                      : Yes

    Audio #2
    ID                          : 3
    Format                      : DTS XLL
    Format/Info                 : Digital Theater Systems
    Commercial name             : DTS-HD Master Audio
    Codec ID                    : A_DTS
    Duration                    : 1 h 42 min
    Bit rate mode               : Variable
    Bit rate                    : 3 762 kb/s
    Channel(s)                  : 6 channels
    Channel layout              : C L R Ls Rs LFE
    Sampling rate               : 48.0 kHz
    Frame rate                  : 93.750 FPS (512 SPF)
    Bit depth                   : 24 bits
    Compression mode            : Lossless
    Stream size                 : 2.69 GiB (47%)
    Title                       : Frances [CinemaniaHDD]
    Language                    : French
    Default                     : No
    Forced                      : No

    Text #1
    ID                          : 4
    Format                      : UTF-8
    Codec ID                    : S_TEXT/UTF8
    Codec ID/Info               : UTF-8 Plain Text
    Duration                    : 53 min 32 s
    Bit rate                    : 0 b/s
    Count of elements           : 4
    Stream size                 : 70.0 Bytes (0%)
    Title                       : Forzados-SRT [CinemaniaHDD]
    Language                    : Spanish
    Default                     : Yes
    Forced                      : Yes

    Text #2
    ID                          : 5
    Format                      : UTF-8
    Codec ID                    : S_TEXT/UTF8
    Codec ID/Info               : UTF-8 Plain Text
    Duration                    : 1 h 35 min
    Bit rate                    : 36 b/s
    Count of elements           : 826
    Stream size                 : 25.7 KiB (0%)
    Title                       : Español-SRT [CinemaniaHDD]
    Language                    : Spanish
    Default                     : No
    Forced                      : No

    Text #3
    ID                          : 6
    Format                      : UTF-8
    Codec ID                    : S_TEXT/UTF8
    Codec ID/Info               : UTF-8 Plain Text
    Duration                    : 1 h 41 min
    Bit rate                    : 47 b/s
    Count of elements           : 1189
    Stream size                 : 35.4 KiB (0%)
    Title                       : Frances-SRT [CinemaniaHDD]
    Language                    : French
    Default                     : No
    Forced                      : No

    Menu
    00:00:00.000                : Chapter 01
    00:02:47.875                : Chapter 02
    00:08:39.041                : Chapter 03
    00:15:45.625                : Chapter 04
    00:22:11.958                : Chapter 05
    00:31:29.458                : Chapter 06
    00:38:40.208                : Chapter 07
    00:44:48.708                : Chapter 08
    00:51:36.083                : Chapter 09
    00:57:42.166                : Chapter 10
    01:06:25.416                : Chapter 11
    01:15:26.875                : Chapter 12
    01:20:12.833                : Chapter 13
    01:24:15.291                : Chapter 14
    01:28:20.875                : Chapter 15
    01:36:32.791                : Chapter 16

  • Peso: 5.75 GiB

Sinopsis

Descargar Una Sirena En París (2020) PLACEBO Full HD 1080p Latino. Un día, Gaspard, un hombre que ya ha sufrido muchos engaños amorosos y cree que no le queda más amor que dar, se topa en el río Sena con una sirena herida llamada Lula. La lleva a su casa para poder cuidarla en su bañera, pero descubre que cualquier hombre que se enamore de ella acaba muriendo. Inmune a sus encantos al principio, acabará cayendo rendido al amor por Lula, el cual es sinceramente correspondido.

Español Latino AC3 5.1 WebDL – Frances DTS-HD 5.1 BD

Ficha técnica

Video trailer de la película

Enlaces de descarga

Rip de Bluray

Descargar Una Sirena En París (2020) PLACEBO Full HD 1080p Latino




Aportes de DPeliculasHDmega la pass es:dpeliculashdmega.org Aportes de CinemaniaHD la pass es:cinemaniahdd.com

Películas relacionadas

descargar Una Sirena En París (2020) PLACEBO Full HD 1080p Latino Full 1080p 1080p gratis, Una Sirena En París (2020) PLACEBO Full HD 1080p Latino Full 1080p mega 1 link, Una Sirena En París (2020) PLACEBO Full HD 1080p Latino Full 1080p pelicula completa, descargar Una Sirena En París (2020) PLACEBO Full HD 1080p Latino Full 1080p gratis en mega.

Una Sirena En París (2020) PLACEBO Full HD 1080p Latino pelicula full hd, Una Sirena En París (2020) PLACEBO Full HD 1080p Latino mega latino, Una Sirena En París (2020) PLACEBO Full HD 1080p Latino 4k latino, Una Sirena En París (2020) PLACEBO Full HD 1080p Latino pelicula completa, Una Sirena En París (2020) PLACEBO Full HD 1080p Latino descargar gratis, descargar Una Sirena En París (2020) PLACEBO Full HD 1080p Latino pelicula latino, Una Sirena En París (2020) PLACEBO Full HD 1080p Latino 1 link mega, Una Sirena En París (2020) PLACEBO Full HD 1080p Latino 1 link google drive, Una Sirena En París (2020) PLACEBO Full HD 1080p Latino hd 1080p latino.
Comentarios 0