×

¿Problemas para descargar con Mozilla, EDGE? Deshabilita la opción "Abrir vinculos en una pestaña nueva" tal como lo muestra ésta imagen.

Una Singularidad Desnuda (2021) REMUX 1080p Latino

238 vistas

Información de Una Singularidad Desnuda (2021) REMUX 1080p Latino

Datos de la película

  • Calidad: Full 1080p
  • Audio: Español Latino AC3 2.0 WEB-DL - Ingles DTS 5.1 BLURAY
  • Subtitulos: Español Latino SRT- FORZADOS SRT
  • Resolución: 1920x1080p
  • Formato: MKV
  • Codec: H.264
  • Encoder: Melkor
  • Mediainfo: Clic para Mostrar Datos Ver
  • Una Singularidad Desnuda (2021) REMUX 1080p Latino.mkv
    Format                      : Matroska
    Format version              : Version 4
    File size                   : 19.1 GiB
    Duration                    : 1 h 33 min
    Overall bit rate mode       : Variable
    Overall bit rate            : 29.2 Mb/s
    Movie name                  : Naked Singularity (2021) CinemaniaHDD.Net
    Encoded date                : UTC 2023-02-18 05:08:47
    Writing application         : mkvmerge v56.1.0 ('My Friend') 64-bit
    Writing library             : libebml v1.4.2 + libmatroska v1.6.4
    Attachments                 : CINEMANIAHD.png
    Site                        : CinemaniaHDD.Net
    Uploader                    : Melkor

    Video
    ID                          : 1
    Format                      : AVC
    Format/Info                 : Advanced Video Codec
    Format profile              : High@L4.1
    Format settings             : CABAC / 4 Ref Frames
    Format settings, CABAC      : Yes
    Format settings, Reference  : 4 frames
    Format settings, GOP        : M=3, N=12
    Codec ID                    : V_MPEG4/ISO/AVC
    Duration                    : 1 h 33 min
    Bit rate mode               : Variable
    Bit rate                    : 25.3 Mb/s
    Maximum bit rate            : 32.7 Mb/s
    Width                       : 1 920 pixels
    Height                      : 1 080 pixels
    Display aspect ratio        : 16:9
    Frame rate mode             : Constant
    Frame rate                  : 23.976 (24000/1001) FPS
    Standard                    : NTSC
    Color space                 : YUV
    Chroma subsampling          : 4:2:0
    Bit depth                   : 8 bits
    Scan type                   : Progressive
    Bits/(Pixel*Frame)          : 0.508
    Stream size                 : 16.5 GiB (87%)
    Title                       : REMUX HD1080p [CinemaniaHDD]
    Language                    : zxx
    Default                     : Yes
    Forced                      : Yes
    Color range                 : Limited
    Color primaries             : BT.709
    Transfer characteristics    : BT.709
    Matrix coefficients         : BT.709

    Audio #1
    ID                          : 2
    Format                      : AC-3
    Format/Info                 : Audio Coding 3
    Commercial name             : Dolby Digital
    Codec ID                    : A_AC3
    Duration                    : 1 h 33 min
    Bit rate mode               : Constant
    Bit rate                    : 256 kb/s
    Channel(s)                  : 2 channels
    Channel layout              : L R
    Sampling rate               : 48.0 kHz
    Frame rate                  : 31.250 FPS (1536 SPF)
    Compression mode            : Lossy
    Stream size                 : 171 MiB (1%)
    Title                       : Español Latino [CinemaniaHDD]
    Language                    : Spanish
    Service kind                : Complete Main
    Default                     : Yes
    Forced                      : Yes

    Audio #2
    ID                          : 3
    Format                      : DTS XLL
    Format/Info                 : Digital Theater Systems
    Commercial name             : DTS-HD Master Audio
    Codec ID                    : A_DTS
    Duration                    : 1 h 33 min
    Bit rate mode               : Variable
    Bit rate                    : 3 613 kb/s
    Channel(s)                  : 6 channels
    Channel layout              : C L R Ls Rs LFE
    Sampling rate               : 48.0 kHz
    Frame rate                  : 93.750 FPS (512 SPF)
    Bit depth                   : 24 bits
    Compression mode            : Lossless
    Stream size                 : 2.36 GiB (12%)
    Title                       : Ingles [CinemaniaHDD]
    Language                    : English
    Default                     : No
    Forced                      : No

    Text #1
    ID                          : 4
    Format                      : UTF-8
    Codec ID                    : S_TEXT/UTF8
    Codec ID/Info               : UTF-8 Plain Text
    Duration                    : 1 h 18 min
    Bit rate                    : 0 b/s
    Count of elements           : 20
    Stream size                 : 479 Bytes (0%)
    Title                       : Forzados-SRT [CinemaniaHDD]
    Language                    : Spanish
    Default                     : Yes
    Forced                      : Yes

    Text #2
    ID                          : 5
    Format                      : UTF-8
    Codec ID                    : S_TEXT/UTF8
    Codec ID/Info               : UTF-8 Plain Text
    Duration                    : 1 h 25 min
    Bit rate                    : 61 b/s
    Count of elements           : 1203
    Stream size                 : 38.3 KiB (0%)
    Title                       : Español-SRT [CinemaniaHDD]
    Language                    : Spanish
    Default                     : No
    Forced                      : No

    Text #3
    ID                          : 6
    Format                      : PGS
    Muxing mode                 : zlib
    Codec ID                    : S_HDMV/PGS
    Codec ID/Info               : Picture based subtitle format used on BDs/HD-DVDs
    Duration                    : 1 h 30 min
    Bit rate                    : 82.0 kb/s
    Count of elements           : 1999
    Stream size                 : 53.4 MiB (0%)
    Title                       : Ingles [CinemaniaHDD]
    Language                    : English
    Default                     : No
    Forced                      : No

    Menu
    00:00:00.000                : Public Defender
    00:06:27.137                : You Got Me Well
    00:11:43.453                : My Hero
    00:20:27.101                : Guess Who's Mugshot
    00:28:33.253                : A Wrinkle
    00:37:30.498                : Tough Week
    00:43:10.338                : I Took Fencing
    00:53:16.318                : Protect the Innocent
    01:01:28.602                : Excellent Condition
    01:11:20.109                : Tear Gas
    01:17:39.655                : Sight Unseen
    01:26:44.991                : End Credits

  • Peso: 19.1 GiB

Sinopsis

Descargar Una Singularidad Desnuda (2021) REMUX 1080p Latino. Cuando un exitoso defensor público de Nueva York pierde su primer caso, un antiguo cliente lo mete en un robo de drogas en un esfuerzo por vencer al sistema roto en su propio juego.

Ficha técnica

Video trailer de la película

Enlaces de descarga

Rip de Bluray

Descargar Una Singularidad Desnuda (2021) REMUX 1080p Latino




Aportes de DPeliculasHDmega la pass es:dpeliculashdmega.org Aportes de CinemaniaHD la pass es:cinemaniahdd.com Aportes recientes:cinemaniahdd.net
Guardado en : Crimen , Drama , Remux

Películas relacionadas

descargar Una Singularidad Desnuda (2021) REMUX 1080p Latino Full 1080p 1080p gratis, Una Singularidad Desnuda (2021) REMUX 1080p Latino Full 1080p mega 1 link, Una Singularidad Desnuda (2021) REMUX 1080p Latino Full 1080p pelicula completa, descargar Una Singularidad Desnuda (2021) REMUX 1080p Latino Full 1080p gratis en mega.

Una Singularidad Desnuda (2021) REMUX 1080p Latino pelicula full hd, Una Singularidad Desnuda (2021) REMUX 1080p Latino mega latino, Una Singularidad Desnuda (2021) REMUX 1080p Latino 4k latino, Una Singularidad Desnuda (2021) REMUX 1080p Latino pelicula completa, Una Singularidad Desnuda (2021) REMUX 1080p Latino descargar gratis, descargar Una Singularidad Desnuda (2021) REMUX 1080p Latino pelicula latino, Una Singularidad Desnuda (2021) REMUX 1080p Latino 1 link mega, Una Singularidad Desnuda (2021) REMUX 1080p Latino 1 link google drive, Una Singularidad Desnuda (2021) REMUX 1080p Latino hd 1080p latino.
Comentarios 0