×

¿Problemas para descargar con Mozilla, EDGE? Deshabilita la opción "Abrir vinculos en una pestaña nueva" tal como lo muestra ésta imagen.

Una pareja explosiva (1998) Full HD 1080p Latino

4.549 vistas

Información de Una pareja explosiva (1998) Full HD 1080p Latino

Datos de la película

  • Calidad: Full 1080p
  • Audio: Español Latino AC3 2.0 BLURAY - Ingles DTS 5.1 BLURAY
  • Subtitulos: Español Latino SRT- FORZADOS SRT
  • Resolución: 1920X1080
  • Formato: MKV
  • Codec: H.264
  • Encoder: cinemaniahdd
  • Mediainfo: Clic para Mostrar Datos Ver
  • Una Pareja Explosiva (1998) Full HD 1080p Latino [CNMNHDD].mkv
    Format                      : Matroska
    Format version              : Version 4
    File size                   : 5.53 GiB
    Duration                    : 1 h 37 min
    Overall bit rate            : 8 090 kb/s
    Movie name                  : Una Pareja Explosiva (1998) Full HD - CinemaniaHDD.Net
    Encoded date                : UTC 2020-08-24 14:01:49
    Writing application         : mkvmerge v46.0.0 ('No Deeper Escape') 64-bit
    Writing library             : libebml v1.3.10 + libmatroska v1.5.2

    Video
    ID                          : 1
    Format                      : AVC
    Format/Info                 : Advanced Video Codec
    Format profile              : High@L4.1
    Format settings             : CABAC / 4 Ref Frames
    Format settings, CABAC      : Yes
    Format settings, Reference  : 4 frames
    Codec ID                    : V_MPEG4/ISO/AVC
    Duration                    : 1 h 37 min
    Bit rate                    : 6 290 kb/s
    Width                       : 1 920 pixels
    Height                      : 1 080 pixels
    Display aspect ratio        : 16:9
    Frame rate mode             : Constant
    Frame rate                  : 23.976 (24000/1001) FPS
    Color space                 : YUV
    Chroma subsampling          : 4:2:0
    Bit depth                   : 8 bits
    Scan type                   : Progressive
    Bits/(Pixel*Frame)          : 0.127
    Stream size                 : 4.30 GiB (78%)
    Title                       : CinemaniaHDD
    Writing library             : x264 core 157 r2935 545de2f
    Encoding settings           : cabac=1 / ref=4 / deblock=1:0:0 / analyse=0x3:0x133 / me=tesa / subme=11 / psy=1 / psy_rd=1.00:0.00 / mixed_ref=1 / me_range=24 / chroma_me=1 / trellis=2 / 8x8dct=1 / cqm=0 / deadzone=21,11 / fast_pskip=0 / chroma_qp_offset=-2 / threads=24 / lookahead_threads=6 / sliced_threads=0 / nr=0 / decimate=1 / interlaced=0 / bluray_compat=0 / constrained_intra=0 / bframes=16 / b_pyramid=2 / b_adapt=2 / b_bias=0 / direct=3 / weightb=1 / open_gop=0 / weightp=2 / keyint=240 / keyint_min=24 / scenecut=40 / intra_refresh=0 / rc_lookahead=60 / rc=crf / mbtree=1 / crf=20.0 / qcomp=0.60 / qpmin=0 / qpmax=69 / qpstep=4 / vbv_maxrate=62500 / vbv_bufsize=78125 / crf_max=0.0 / nal_hrd=none / filler=0 / ip_ratio=1.40 / aq=1:1.00
    Default                     : Yes
    Forced                      : No
    Color range                 : Limited
    Color primaries             : BT.709
    Transfer characteristics    : BT.709
    Matrix coefficients         : BT.709

    Audio #1
    ID                          : 2
    Format                      : AC-3
    Format/Info                 : Audio Coding 3
    Commercial name             : Dolby Digital
    Codec ID                    : A_AC3
    Duration                    : 1 h 37 min
    Bit rate mode               : Constant
    Bit rate                    : 256 kb/s
    Channel(s)                  : 2 channels
    Channel layout              : L R
    Sampling rate               : 48.0 kHz
    Frame rate                  : 31.250 FPS (1536 SPF)
    Compression mode            : Lossy
    Delay relative to video     : -21 ms
    Stream size                 : 179 MiB (3%)
    Title                       : Español latino [CinemaniaHDD]
    Language                    : Spanish
    Service kind                : Complete Main
    Default                     : Yes
    Forced                      : No

    Audio #2
    ID                          : 3
    Format                      : DTS ES
    Format/Info                 : Digital Theater Systems
    Commercial name             : DTS-ES Matrix
    Codec ID                    : A_DTS
    Duration                    : 1 h 37 min
    Bit rate mode               : Constant
    Bit rate                    : 1 509 kb/s
    Channel(s)                  : 6 channels
    Channel(s)_Original         : 7 channels
    ChannelLayout_Original      : C L R Ls Rs Cs LFE
    Sampling rate               : 48.0 kHz
    Frame rate                  : 93.750 FPS (512 SPF)
    Bit depth                   : 24 bits
    Compression mode            : Lossy
    Delay relative to video     : -21 ms
    Stream size                 : 1.03 GiB (19%)
    Title                       : Inglés [CinemaniaHDD]
    Language                    : English
    Default                     : No
    Forced                      : No

    Text #1
    ID                          : 4
    Format                      : UTF-8
    Codec ID                    : S_TEXT/UTF8
    Codec ID/Info               : UTF-8 Plain Text
    Duration                    : 1 h 34 min
    Bit rate                    : 1 b/s
    Count of elements           : 42
    Stream size                 : 1.27 KiB (0%)
    Title                       : Forzados [CinemaniaHDD]
    Language                    : Spanish
    Default                     : Yes
    Forced                      : Yes

    Text #2
    ID                          : 5
    Format                      : UTF-8
    Codec ID                    : S_TEXT/UTF8
    Codec ID/Info               : UTF-8 Plain Text
    Duration                    : 1 h 34 min
    Bit rate                    : 53 b/s
    Count of elements           : 1074
    Stream size                 : 37.2 KiB (0%)
    Title                       : Español latino [CinemaniaHDD]
    Language                    : Spanish
    Default                     : No
    Forced                      : No

    Text #3
    ID                          : 6
    Format                      : PGS
    Muxing mode                 : zlib
    Codec ID                    : S_HDMV/PGS
    Codec ID/Info               : Picture based subtitle format used on BDs/HD-DVDs
    Duration                    : 1 h 37 min
    Bit rate                    : 31.7 kb/s
    Count of elements           : 2583
    Stream size                 : 22.0 MiB (0%)
    Title                       : Español latino [CinemaniaHDD]
    Language                    : Spanish
    Default                     : No
    Forced                      : No

    Text #4
    ID                          : 7
    Format                      : PGS
    Muxing mode                 : zlib
    Codec ID                    : S_HDMV/PGS
    Codec ID/Info               : Picture based subtitle format used on BDs/HD-DVDs
    Duration                    : 1 h 35 min
    Bit rate                    : 41.9 kb/s
    Count of elements           : 2860
    Stream size                 : 28.7 MiB (1%)
    Title                       : Inglés [CinemaniaHDD]
    Language                    : English
    Default                     : No
    Forced                      : No

    Menu
    00:00:00.000                : :Chapter 1
    00:02:28.023                : :Chapter 2
    00:04:01.742                : :Chapter 3
    00:06:10.787                : :Chapter 4
    00:09:28.902                : :Chapter 5
    00:12:03.306                : :Chapter 6
    00:15:16.958                : :Chapter 7
    00:17:11.697                : :Chapter 8
    00:20:01.701                : :Chapter 9
    00:22:53.581                : :Chapter 10
    00:27:04.456                : :Chapter 11
    00:29:16.964                : :Chapter 12
    00:34:39.578                : :Chapter 13
    00:35:50.482                : :Chapter 14
    00:38:46.908                : :Chapter 15
    00:41:35.326                : :Chapter 16
    00:43:32.360                : :Chapter 17
    00:46:48.889                : :Chapter 18
    00:48:42.294                : :Chapter 19
    00:51:11.902                : :Chapter 20
    00:54:45.866                : :Chapter 21
    00:57:35.077                : :Chapter 22
    00:59:36.281                : :Chapter 23
    01:02:47.681                : :Chapter 24
    01:06:05.753                : :Chapter 25
    01:08:14.132                : :Chapter 26
    01:10:50.163                : :Chapter 27
    01:13:07.925                : :Chapter 28
    01:16:33.380                : :Chapter 29
    01:18:47.139                : :Chapter 30
    01:22:06.755                : :Chapter 31
    01:23:43.977                : :Chapter 32
    01:25:58.570                : :Chapter 33
    01:28:01.276                : :Chapter 34
    01:29:57.392                : :Chapter 35
    01:32:10.775                : :Chapter 36
    01:35:16.836                : :Chapter 37

     

  • Peso: 5.53 GiB

Sinopsis

Dos detectives diferentes son asignados en un mismo caso. Ambos tendrán que adaptarse a las costumbres del otro para poder concluir su trabajo con éxito, pero no va a ser una tarea fácil. El detective inspector Lee (Jackie Chan) es el rey de las artes marciales y pertenece a la Royal Hong Kong Police. Su pupila preferida es la hija de once años del Cónsul chino, de la cual el inspector Lee es su guardaespaldas y su mejor amigo. Esta muchacha es capturada y llevada a los Estados Unidos por un peligroso grupo criminal. Hasta allí tendrá que viajar el inspector y, donde se unirá a la investigación con un departamento del FBI y, concretamente, al detective James Carter (Tucker), un arrogante e impulsivo agente de policía. La explosiva pareja tendrá que enfrentarse a una banda de criminales muy peligrosa, y contarán con la ayuda de Tania Johnson (Elizabeth Peña), una experta en artefactos explosivos.

Ficha técnica

Video trailer de la película

Enlaces de descarga

Rip de Bluray

Descargar Una pareja explosiva (1998) Full HD 1080p Latino




Aportes de DPeliculasHDmega la pass es:dpeliculashdmega.org Aportes de CinemaniaHD la pass es:cinemaniahdd.com

Películas relacionadas

  • La Máquina infernal (2022) WEB-DL 1080p Latino

    La Máquina infernal (2022) WEB-DL 1080p Latino

    2022
    La Máquina infernal (2022) WEB-DL 1080p Latino

    1h 47m 2022

    Descargar La Máquina infernal (2022) WEB-DL 1080p Latino. Un fan obsesivo saca de su escondite al solitario...

    Director: Andrew Hunt

    Género: Suspenso

    Actores: Rocco Salata

  • Borrego: Sal Del Camino (2022) HD 1080p Latino

    Borrego: Sal Del Camino (2022) HD 1080p Latino

    2022
    Borrego: Sal Del Camino (2022) HD 1080p Latino

    1h 42m 2022

    Descargar Borrego: Sal Del Camino (2022) HD 1080p Latino. Una joven botánica se traslada a un pequeño...

    Director: Jesse Harris

    Género: Crimen

    Actores: Olivia Trujillo

  • Borrego: Sal Del Camino (2022) REMUX 1080p Latino

    Borrego: Sal Del Camino (2022) REMUX 1080p Latino

    2022
    Borrego: Sal Del Camino (2022) REMUX 1080p Latino

    1h 42m 2022

    Descargar Borrego: Sal Del Camino (2022) REMUX 1080p Latino. Una joven botánica se traslada a un pequeño...

    Director: Jesse Harris

    Género: Crimen

    Actores: Olivia Trujillo

descargar Una pareja explosiva (1998) Full HD 1080p Latino Full 1080p 1080p gratis, Una pareja explosiva (1998) Full HD 1080p Latino Full 1080p mega 1 link, Una pareja explosiva (1998) Full HD 1080p Latino Full 1080p pelicula completa, descargar Una pareja explosiva (1998) Full HD 1080p Latino Full 1080p gratis en mega.

Una pareja explosiva (1998) Full HD 1080p Latino pelicula full hd, Una pareja explosiva (1998) Full HD 1080p Latino mega latino, Una pareja explosiva (1998) Full HD 1080p Latino 4k latino, Una pareja explosiva (1998) Full HD 1080p Latino pelicula completa, Una pareja explosiva (1998) Full HD 1080p Latino descargar gratis, descargar Una pareja explosiva (1998) Full HD 1080p Latino pelicula latino, Una pareja explosiva (1998) Full HD 1080p Latino 1 link mega, Una pareja explosiva (1998) Full HD 1080p Latino 1 link google drive, Una pareja explosiva (1998) Full HD 1080p Latino hd 1080p latino.
Comentarios 10
  • Jose - 24 agosto, 2020

    NO hay desface de audio. Ya la vi completa, todo ok. Puede ser el reproductor que usas

  • ocpgaiden - 24 agosto, 2020

    Gracias y saludos

  • Alexis - 29 diciembre, 2017

    Buenas noches, gracias por subir la saga completa pero esta tiene un desfase en toda la peli :/

    • dpelis - 30 diciembre, 2017

      use delay -200 y qda bien, lo raro nose porque el desafe. saludos

    • Jose - 24 agosto, 2020

      No hay desface,ya la vi completa, todo ok. Puede ser tu reproductor,

      • CinemaniaHDD - 26 agosto, 2020

        Gracias por opinar, pero el usuario esta hablando de una version anterior subida por otro uploder en el año 2017 xD

  • Tio Higuera - 28 diciembre, 2017

    buena pelicula, gracias.

  • kike74 - 24 diciembre, 2017

    Hola!
    muchas gracias por estas películas, ojala que puedan subir todas las películas de Jackie chang. son los mejores!!!

    • Dpelis2 - 24 diciembre, 2017

      Lo intentaremos Saludos

  • ToRuKMaTo - 23 diciembre, 2017

    si…tremendos clasicos…..mi amigo me llevo las 3 ok….muchas gracias..#Felices Fiestas!!