Una pareja explosiva 3 (2007) Full HD 1080p Latino

4.394 vistas
1 estrella2 estrellas3 estrellas4 estrellas5 estrellas (3 votos, promedio: 5,00 de 5)
Cargando...

Información de Una pareja explosiva 3 (2007) Full HD 1080p Latino

Datos de la película

  • Calidad: Full 1080p
  • Audio: Se especifica abajo de la Sinopsis
  • Subtitulos: Español Latino SRT- FORZADOS SRT
  • Resolución: 1920x1080
  • Formato: MKV
  • Codec: H.264
  • Encoder: cinemaniahdd
  • Mediainfo: Clic para Mostrar Datos Ver
  • Una Pareja Explosiva 3 (2007) Full HD 1080p Latino [CNMNHDD].mkv
    Format                      : Matroska
    Format version              : Version 4
    File size                   : 6.64 GiB
    Duration                    : 1 h 30 min
    Overall bit rate            : 10.5 Mb/s
    Movie name                  : Una Pareja Explosiva 3 (2007) Full HD - CinemaniaHDD.Net
    Encoded date                : UTC 2020-08-24 14:03:25
    Writing application         : mkvmerge v46.0.0 ('No Deeper Escape') 64-bit
    Writing library             : libebml v1.3.10 + libmatroska v1.5.2

    Video
    ID                          : 1
    Format                      : AVC
    Format/Info                 : Advanced Video Codec
    Format profile              : High@L4.1
    Format settings             : CABAC / 4 Ref Frames
    Format settings, CABAC      : Yes
    Format settings, Reference  : 4 frames
    Codec ID                    : V_MPEG4/ISO/AVC
    Duration                    : 1 h 30 min
    Bit rate                    : 8 708 kb/s
    Width                       : 1 920 pixels
    Height                      : 1 080 pixels
    Display aspect ratio        : 16:9
    Frame rate mode             : Constant
    Frame rate                  : 23.976 (24000/1001) FPS
    Color space                 : YUV
    Chroma subsampling          : 4:2:0
    Bit depth                   : 8 bits
    Scan type                   : Progressive
    Bits/(Pixel*Frame)          : 0.175
    Stream size                 : 5.52 GiB (83%)
    Title                       : CinemaniaHDD
    Writing library             : x264 core 157 r2935 545de2f
    Encoding settings           : cabac=1 / ref=4 / deblock=1:0:0 / analyse=0x3:0x133 / me=tesa / subme=11 / psy=1 / psy_rd=1.00:0.00 / mixed_ref=1 / me_range=24 / chroma_me=1 / trellis=2 / 8x8dct=1 / cqm=0 / deadzone=21,11 / fast_pskip=0 / chroma_qp_offset=-2 / threads=24 / lookahead_threads=6 / sliced_threads=0 / nr=0 / decimate=1 / interlaced=0 / bluray_compat=0 / constrained_intra=0 / bframes=16 / b_pyramid=2 / b_adapt=2 / b_bias=0 / direct=3 / weightb=1 / open_gop=0 / weightp=2 / keyint=240 / keyint_min=24 / scenecut=40 / intra_refresh=0 / rc_lookahead=60 / rc=crf / mbtree=1 / crf=20.0 / qcomp=0.60 / qpmin=0 / qpmax=69 / qpstep=4 / vbv_maxrate=62500 / vbv_bufsize=78125 / crf_max=0.0 / nal_hrd=none / filler=0 / ip_ratio=1.40 / aq=1:1.00
    Default                     : Yes
    Forced                      : No
    Color range                 : Limited
    Color primaries             : BT.709
    Transfer characteristics    : BT.709
    Matrix coefficients         : BT.709

    Audio #1
    ID                          : 2
    Format                      : AC-3
    Format/Info                 : Audio Coding 3
    Commercial name             : Dolby Digital
    Codec ID                    : A_AC3
    Duration                    : 1 h 30 min
    Bit rate mode               : Constant
    Bit rate                    : 256 kb/s
    Channel(s)                  : 2 channels
    Channel layout              : L R
    Sampling rate               : 48.0 kHz
    Frame rate                  : 31.250 FPS (1536 SPF)
    Compression mode            : Lossy
    Delay relative to video     : -80 ms
    Stream size                 : 166 MiB (2%)
    Title                       : Español latino [CinemaniaHDD]
    Language                    : Spanish
    Service kind                : Complete Main
    Default                     : Yes
    Forced                      : No

    Audio #2
    ID                          : 3
    Format                      : DTS
    Format/Info                 : Digital Theater Systems
    Codec ID                    : A_DTS
    Duration                    : 1 h 30 min
    Bit rate mode               : Constant
    Bit rate                    : 1 509 kb/s
    Channel(s)                  : 6 channels
    Channel layout              : C L R Ls Rs LFE
    Sampling rate               : 48.0 kHz
    Frame rate                  : 93.750 FPS (512 SPF)
    Bit depth                   : 24 bits
    Compression mode            : Lossy
    Delay relative to video     : -80 ms
    Stream size                 : 980 MiB (14%)
    Title                       : Inglés [CinemaniaHDD]
    Language                    : English
    Default                     : No
    Forced                      : No

    Text #1
    ID                          : 4
    Format                      : UTF-8
    Codec ID                    : S_TEXT/UTF8
    Codec ID/Info               : UTF-8 Plain Text
    Duration                    : 1 h 29 min
    Bit rate                    : 8 b/s
    Count of elements           : 151
    Stream size                 : 5.35 KiB (0%)
    Title                       : Forzados [CinemaniaHDD]
    Language                    : Spanish
    Default                     : Yes
    Forced                      : Yes

    Text #2
    ID                          : 5
    Format                      : UTF-8
    Codec ID                    : S_TEXT/UTF8
    Codec ID/Info               : UTF-8 Plain Text
    Duration                    : 1 h 29 min
    Bit rate                    : 62 b/s
    Count of elements           : 1460
    Stream size                 : 41.3 KiB (0%)
    Title                       : Español latino [CinemaniaHDD]
    Language                    : Spanish
    Default                     : No
    Forced                      : No

    Menu
    00:00:00.000                : en:Capítulo 01
    00:05:06.555                : en:Capítulo 02
    00:09:24.230                : en:Capítulo 03
    00:12:03.596                : en:Capítulo 04
    00:17:21.080                : en:Capítulo 05
    00:20:44.116                : en:Capítulo 06
    00:24:06.111                : en:Capítulo 07
    00:29:48.661                : en:Capítulo 08
    00:35:57.989                : en:Capítulo 09
    00:41:56.472                : en:Capítulo 10
    00:47:48.322                : en:Capítulo 11
    00:54:17.211                : en:Capítulo 12
    01:05:50.987                : en:Capítulo 13
    01:11:06.511                : en:Capítulo 14
    01:15:14.760                : en:Capítulo 15
    01:21:43.856                : en:Capítulo 16

     

  • Peso: 6.64 GiB

Sinopsis

El corazón de París esconde un secreto mortal. Al otro lado del mundo, en Los Ángeles, el embajador Han está a punto de divulgar ese secreto. Tiene en su poder información sobre los mecanismos internos de las Tríadas, el sindicato del crimen más poderoso y más conocido del mundo. El embajador ha descubierto la identidad de Shy Shen, elemento clave del vasto anillo del crimen, y está a punto de revelarlo al Tribunal Penal Mundial, hasta que la bala de un asesino lo silencia para siempre. Las Tríadas harán cualquier cosa para asegurarse de que sus secretos permanezcan enterrados, y solamente existe una esperanza para poder detenerlos… El detective Carter (Chris Tucker), del departamento de policía de Los Ángeles, y el inspector chino Lee (Jackie Chan) viajan a París para detener una conspiración criminal a nivel global y para salvar la vida de un viejo amigo: la hija del embajador Han: Soo Yung.

Español Latino AC3 2.0 iTunes – Ingles DTS 5.1 BD

Ficha técnica

Video trailer de la película

Enlaces de descarga

Rip de Bluray

Descargar Una pareja explosiva 3 (2007) Full HD 1080p Latino




Aportes de DPeliculasHDmega la pass es:dpeliculashdmega.org Aportes de CinemaniaHD la pass es:cinemaniahdd.com

Películas relacionadas

  • Ojos Grandes (2014) Full HD 1080p Latino

    Ojos Grandes (2014) Full HD 1080p Latino

    2014
    Ojos Grandes (2014) Full HD 1080p Latino

    5.0 1h 46m 2014

    Descargar Ojos Grandes (2014) Full HD 1080p Latino. 'Big Eyes' está basada en el caso real de Margaret...

    Director: Tim Burton

    Género: Actualizadas

    Actores: Tony Alcantar

  • Wiener Dog Internationals (2017) WEB-DL 1080p Latino

    Wiener Dog Internationals (2017) WEB-DL 1080p Latino

    2017
    Wiener Dog Internationals (2017) WEB-DL 1080p Latino

    5.0 0h 0m 2017

    Después de vencer a la competencia en las nacionales, la familia Jack se prepara para el International...

    Director: Kevan Peterson

    Género: Comedia

    Actores: Selah Joy

  • One More Time (2016) WEB-DL 1080p Latino

    One More Time (2016) WEB-DL 1080p Latino

    2016
    One More Time (2016) WEB-DL 1080p Latino

    5.0 1h 38m 2016

    Jude (Heard) es una joven aspirante a estrella del rock se ha quedado atrapada en la rutina, relegada...

    Director: Robert Edwards

    Género: Comedia

    Actores: Sandra Berrios

  • Barefoot (2014) WEB-DL 1080p Latino

    Barefoot (2014) WEB-DL 1080p Latino

    2014
    Barefoot (2014) WEB-DL 1080p Latino

    5.0 1h 30m 2014

    Un joven rebelde de una familia rica conoce a una paciente psiquiátrica que ha estado aislada prácticamente...

    Director: Andrew Fleming

    Género: Comedia

    Actores: Will Gluck

Una pareja explosiva 3 (2007) Full HD 1080p Latino pelicula full hd, Una pareja explosiva 3 (2007) Full HD 1080p Latino mega latino, Una pareja explosiva 3 (2007) Full HD 1080p Latino 4k latino, Una pareja explosiva 3 (2007) Full HD 1080p Latino pelicula completa, Una pareja explosiva 3 (2007) Full HD 1080p Latino descargar gratis, descargar Una pareja explosiva 3 (2007) Full HD 1080p Latino pelicula latino, Una pareja explosiva 3 (2007) Full HD 1080p Latino 1 link mega, Una pareja explosiva 3 (2007) Full HD 1080p Latino 1 link google drive, Una pareja explosiva 3 (2007) Full HD 1080p Latino hd 1080p latino.
Comentarios 4
  • ocpgaiden - 24 agosto, 2020

    Gracias cinemaniahdd, por las 3 peliculas de pareja explosiva full hd, saludos

  • 007felix - 20 junio, 2018

    Muchas gracias!!!!

  • ToRuKMaTo - 29 diciembre, 2017

    Gracias…por Fin Las Tengo Las 3…..muy amable de t parte….feliz Año Nuevo!!!

    • Dpelis2 - 29 diciembre, 2017

      Saldudos amigo! feliz año para ti tambien 😉