×

¿Problemas para descargar con Mozilla, EDGE? Deshabilita la opción "Abrir vinculos en una pestaña nueva" tal como lo muestra ésta imagen.

Una pareja explosiva 3 (2007) REMUX 1080p Latino

359 vistas

Información de Una pareja explosiva 3 (2007) REMUX 1080p Latino

Datos de la película

  • Calidad: Full 1080p
  • Audio: Se especifica abajo de la Sinopsis
  • Subtitulos: Español Latino SRT- FORZADOS SRT
  • Resolución: 1920x1080
  • Formato: MKV
  • Codec: H.264
  • Encoder: cinemaniahdd
  • Mediainfo: Clic para Mostrar Datos Ver
  • Una Pareja Explosiva 3 (2007) REMUX 1080p Latino [CNMNHDD].mkv
    Format                      : Matroska
    Format version              : Version 4
    File size                   : 22.2 GiB
    Duration                    : 1 h 30 min
    Overall bit rate mode       : Variable
    Overall bit rate            : 35.0 Mb/s
    Movie name                  : Una Pareja Explosiva 3 (2007) REMUX - CinemaniaHDD.Net
    Encoded date                : UTC 2020-08-24 14:40:07
    Writing application         : mkvmerge v46.0.0 ('No Deeper Escape') 64-bit
    Writing library             : libebml v1.3.10 + libmatroska v1.5.2

    Video
    ID                          : 1
    ID in the original source m : 4113 (0x1011)
    Format                      : VC-1
    Format profile              : Advanced@L3
    Codec ID                    : V_MS/VFW/FOURCC / WVC1
    Codec ID/Hint               : Microsoft
    Duration                    : 1 h 30 min
    Bit rate                    : 28.0 Mb/s
    Width                       : 1 920 pixels
    Height                      : 1 080 pixels
    Display aspect ratio        : 16:9
    Frame rate mode             : Constant
    Frame rate                  : 23.976 (24000/1001) FPS
    Color space                 : YUV
    Chroma subsampling          : 4:2:0
    Bit depth                   : 8 bits
    Scan type                   : Progressive
    Compression mode            : Lossy
    Bits/(Pixel*Frame)          : 0.563
    Stream size                 : 17.8 GiB (80%)
    Default                     : Yes
    Forced                      : No
    Original source medium      : Blu-ray

    Audio #1
    ID                          : 2
    Format                      : AC-3
    Format/Info                 : Audio Coding 3
    Commercial name             : Dolby Digital
    Codec ID                    : A_AC3
    Duration                    : 1 h 30 min
    Bit rate mode               : Constant
    Bit rate                    : 256 kb/s
    Channel(s)                  : 2 channels
    Channel layout              : L R
    Sampling rate               : 48.0 kHz
    Frame rate                  : 31.250 FPS (1536 SPF)
    Compression mode            : Lossy
    Delay relative to video     : -75 ms
    Stream size                 : 166 MiB (1%)
    Title                       : Español latino [CinemaniaHDD]
    Language                    : Spanish
    Service kind                : Complete Main
    Default                     : Yes
    Forced                      : No

    Audio #2
    ID                          : 3
    Format                      : DTS
    Format/Info                 : Digital Theater Systems
    Codec ID                    : A_DTS
    Duration                    : 1 h 30 min
    Bit rate mode               : Constant
    Bit rate                    : 1 509 kb/s
    Channel(s)                  : 6 channels
    Channel layout              : C L R Ls Rs LFE
    Sampling rate               : 48.0 kHz
    Frame rate                  : 93.750 FPS (512 SPF)
    Bit depth                   : 24 bits
    Compression mode            : Lossy
    Delay relative to video     : -75 ms
    Stream size                 : 980 MiB (4%)
    Title                       : Inglés - DTS Core [CinemaniaHDD]
    Language                    : English
    Default                     : No
    Forced                      : No

    Audio #3
    ID                          : 4
    ID in the original source m : 4353 (0x1101)
    Format                      : DTS XLL
    Format/Info                 : Digital Theater Systems
    Commercial name             : DTS-HD Master Audio
    Codec ID                    : A_DTS
    Duration                    : 1 h 30 min
    Bit rate mode               : Variable
    Bit rate                    : 5 233 kb/s
    Channel(s)                  : 8 channels
    Channel layout              : C L R Ls Rs LFE Lw Rw
    Sampling rate               : 48.0 kHz
    Frame rate                  : 93.750 FPS (512 SPF)
    Bit depth                   : 24 bits
    Compression mode            : Lossless
    Delay relative to video     : 42 ms
    Stream size                 : 3.32 GiB (15%)
    Title                       : Inglés - DTS-HD [CinemaniaHDD]
    Language                    : English
    Default                     : No
    Forced                      : No
    Original source medium      : Blu-ray

    Text #1
    ID                          : 5
    Format                      : UTF-8
    Codec ID                    : S_TEXT/UTF8
    Codec ID/Info               : UTF-8 Plain Text
    Duration                    : 1 h 29 min
    Bit rate                    : 8 b/s
    Count of elements           : 151
    Stream size                 : 5.35 KiB (0%)
    Title                       : Forzados [CinemaniaHDD]
    Language                    : Spanish
    Default                     : Yes
    Forced                      : Yes

    Text #2
    ID                          : 6
    Format                      : UTF-8
    Codec ID                    : S_TEXT/UTF8
    Codec ID/Info               : UTF-8 Plain Text
    Duration                    : 1 h 29 min
    Bit rate                    : 62 b/s
    Count of elements           : 1460
    Stream size                 : 41.3 KiB (0%)
    Title                       : Español latino [CinemaniaHDD]
    Language                    : Spanish
    Default                     : No
    Forced                      : No

    Menu
    00:00:00.000                : en:Capítulo 01
    00:05:06.555                : en:Capítulo 02
    00:09:24.230                : en:Capítulo 03
    00:12:03.596                : en:Capítulo 04
    00:17:21.080                : en:Capítulo 05
    00:20:44.116                : en:Capítulo 06
    00:24:06.111                : en:Capítulo 07
    00:29:48.661                : en:Capítulo 08
    00:35:57.989                : en:Capítulo 09
    00:41:56.472                : en:Capítulo 10
    00:47:48.322                : en:Capítulo 11
    00:54:17.211                : en:Capítulo 12
    01:05:50.987                : en:Capítulo 13
    01:11:06.511                : en:Capítulo 14
    01:15:14.760                : en:Capítulo 15
    01:21:43.856                : en:Capítulo 16

     

  • Peso: 22.2 GiB

Sinopsis

El corazón de París esconde un secreto mortal. Al otro lado del mundo, en Los Ángeles, el embajador Han está a punto de divulgar ese secreto. Tiene en su poder información sobre los mecanismos internos de las Tríadas, el sindicato del crimen más poderoso y más conocido del mundo. El embajador ha descubierto la identidad de Shy Shen, elemento clave del vasto anillo del crimen, y está a punto de revelarlo al Tribunal Penal Mundial, hasta que la bala de un asesino lo silencia para siempre. Las Tríadas harán cualquier cosa para asegurarse de que sus secretos permanezcan enterrados, y solamente existe una esperanza para poder detenerlos… El detective Carter (Chris Tucker), del departamento de policía de Los Ángeles, y el inspector chino Lee (Jackie Chan) viajan a París para detener una conspiración criminal a nivel global y para salvar la vida de un viejo amigo: la hija del embajador Han: Soo Yung.

Español Latino AC3 2.0 iTunes – Ingles DTS-HD 7.1 BD + Core DTS 5.1 BD

Ficha técnica

Video trailer de la película

Enlaces de descarga

Rip de Bluray

Descargar Una pareja explosiva 3 (2007) REMUX 1080p Latino




Aportes de DPeliculasHDmega la pass es:dpeliculashdmega.org Aportes de CinemaniaHD la pass es:cinemaniahdd.com
Guardado en : Acción , Comedia , Crimen , Remux

Películas relacionadas

  • Paradise Highway (2022) HD 1080p Latino

    Paradise Highway (2022) HD 1080p Latino

    2022
    Paradise Highway (2022) HD 1080p Latino

    1h 55m 2022

    Descargar Paradise Highway (2022) HD 1080p Latino. Un camionero se ha visto obligado a pasar de contrabando...

    Director: Anna Gutto

    Género: Crimen

    Actores: Xavier Scott Evans

  • Paradise Highway (2022) PLACEBO Full HD 1080p Latino

    Paradise Highway (2022) PLACEBO Full HD 1080p Latino

    2022
    Paradise Highway (2022) PLACEBO Full HD 1080p Latino

    1h 55m 2022

    Descargar Paradise Highway (2022) PLACEBO Full HD 1080p Latino. Un camionero se ha visto obligado a pasar...

    Director: Anna Gutto

    Género: Crimen

    Actores: Xavier Scott Evans

  • Paradise Highway (2022) REMUX 1080p Latino

    Paradise Highway (2022) REMUX 1080p Latino

    2022
    Paradise Highway (2022) REMUX 1080p Latino

    1h 55m 2022

    Descargar Paradise Highway (2022) REMUX 1080p Latino. Un camionero se ha visto obligado a pasar de contrabando...

    Director: Anna Gutto

    Género: Crimen

    Actores: Xavier Scott Evans

descargar Una pareja explosiva 3 (2007) REMUX 1080p Latino Full 1080p 1080p gratis, Una pareja explosiva 3 (2007) REMUX 1080p Latino Full 1080p mega 1 link, Una pareja explosiva 3 (2007) REMUX 1080p Latino Full 1080p pelicula completa, descargar Una pareja explosiva 3 (2007) REMUX 1080p Latino Full 1080p gratis en mega.

Una pareja explosiva 3 (2007) REMUX 1080p Latino pelicula full hd, Una pareja explosiva 3 (2007) REMUX 1080p Latino mega latino, Una pareja explosiva 3 (2007) REMUX 1080p Latino 4k latino, Una pareja explosiva 3 (2007) REMUX 1080p Latino pelicula completa, Una pareja explosiva 3 (2007) REMUX 1080p Latino descargar gratis, descargar Una pareja explosiva 3 (2007) REMUX 1080p Latino pelicula latino, Una pareja explosiva 3 (2007) REMUX 1080p Latino 1 link mega, Una pareja explosiva 3 (2007) REMUX 1080p Latino 1 link google drive, Una pareja explosiva 3 (2007) REMUX 1080p Latino hd 1080p latino.
Comentarios 1
  • ocpgaiden - 24 agosto, 2020

    Gracias por las 3 peliculas de Pareja Explosiva bdremux, saludos