×

¿Problemas para descargar con Mozilla, EDGE? Deshabilita la opción "Abrir vinculos en una pestaña nueva" tal como lo muestra ésta imagen.

Una pareja explosiva 3 (2007) HD 1080p Latino

334 vistas

Información de Una pareja explosiva 3 (2007) HD 1080p Latino

Datos de la película

  • Calidad: 1080p
  • Audio: Español Latino AC3 2.0 iTUNES - Ingles AC3 5.1 BLURAY
  • Subtitulos: Español Latino SRT- FORZADOS SRT
  • Resolución: 1920x800
  • Formato: MKV
  • Codec: H.264
  • Encoder: cinemaniahdd
  • Mediainfo: Clic para Mostrar Datos Ver
  • Una Pareja Explosiva 3 (2007) HD 1080p Latino [CNMNHDD].mkv
    Format                      : Matroska
    Format version              : Version 4
    File size                   : 2.56 GiB
    Duration                    : 1 h 30 min
    Overall bit rate            : 4 031 kb/s
    Movie name                  : Una Pareja Explosiva 3 (2007) HD - CinemaniaHDD.Net
    Encoded date                : UTC 2020-08-23 22:35:22
    Writing application         : mkvmerge v46.0.0 ('No Deeper Escape') 64-bit
    Writing library             : libebml v1.3.10 + libmatroska v1.5.2

    Video
    ID                          : 1
    Format                      : AVC
    Format/Info                 : Advanced Video Codec
    Format profile              : Main@L4
    Format settings             : CABAC / 5 Ref Frames
    Format settings, CABAC      : Yes
    Format settings, Reference  : 5 frames
    Codec ID                    : V_MPEG4/ISO/AVC
    Duration                    : 1 h 30 min
    Bit rate                    : 3 325 kb/s
    Nominal bit rate            : 3 500 kb/s
    Width                       : 1 920 pixels
    Height                      : 800 pixels
    Display aspect ratio        : 2.40:1
    Frame rate mode             : Constant
    Frame rate                  : 23.976 (24000/1001) FPS
    Color space                 : YUV
    Chroma subsampling          : 4:2:0
    Bit depth                   : 8 bits
    Scan type                   : Progressive
    Bits/(Pixel*Frame)          : 0.090
    Stream size                 : 2.11 GiB (82%)
    Title                       : CinemaniaHDD
    Writing library             : x264 core 157 r2935 545de2f
    Encoding settings           : cabac=1 / ref=5 / deblock=1:0:0 / analyse=0x1:0x111 / me=hex / subme=8 / psy=1 / psy_rd=1.00:0.00 / mixed_ref=1 / me_range=16 / chroma_me=1 / trellis=2 / 8x8dct=0 / cqm=0 / deadzone=21,11 / fast_pskip=1 / chroma_qp_offset=-2 / threads=24 / lookahead_threads=4 / sliced_threads=0 / nr=0 / decimate=1 / interlaced=0 / bluray_compat=0 / constrained_intra=0 / bframes=3 / b_pyramid=2 / b_adapt=1 / b_bias=0 / direct=3 / weightb=1 / open_gop=0 / weightp=2 / keyint=240 / keyint_min=24 / scenecut=40 / intra_refresh=0 / rc_lookahead=50 / rc=abr / mbtree=1 / bitrate=3500 / ratetol=1.0 / qcomp=0.60 / qpmin=0 / qpmax=69 / qpstep=4 / vbv_maxrate=20000 / vbv_bufsize=25000 / nal_hrd=none / filler=0 / ip_ratio=1.40 / aq=1:1.00
    Default                     : Yes
    Forced                      : No
    Color range                 : Limited
    Color primaries             : BT.709
    Transfer characteristics    : BT.709
    Matrix coefficients         : BT.709

    Audio #1
    ID                          : 2
    Format                      : AC-3
    Format/Info                 : Audio Coding 3
    Commercial name             : Dolby Digital
    Codec ID                    : A_AC3
    Duration                    : 1 h 30 min
    Bit rate mode               : Constant
    Bit rate                    : 256 kb/s
    Channel(s)                  : 2 channels
    Channel layout              : L R
    Sampling rate               : 48.0 kHz
    Frame rate                  : 31.250 FPS (1536 SPF)
    Compression mode            : Lossy
    Delay relative to video     : -5 ms
    Stream size                 : 166 MiB (6%)
    Title                       : Español latino [CinemaniaHDD]
    Language                    : Spanish
    Service kind                : Complete Main
    Default                     : Yes
    Forced                      : No

    Audio #2
    ID                          : 3
    Format                      : AC-3
    Format/Info                 : Audio Coding 3
    Commercial name             : Dolby Digital
    Codec ID                    : A_AC3
    Duration                    : 1 h 30 min
    Bit rate mode               : Constant
    Bit rate                    : 448 kb/s
    Channel(s)                  : 6 channels
    Channel layout              : L R C LFE Ls Rs
    Sampling rate               : 48.0 kHz
    Frame rate                  : 31.250 FPS (1536 SPF)
    Compression mode            : Lossy
    Delay relative to video     : -5 ms
    Stream size                 : 291 MiB (11%)
    Title                       : Inglés [CinemaniaHDD]
    Language                    : English
    Service kind                : Complete Main
    Default                     : No
    Forced                      : No

    Text #1
    ID                          : 4
    Format                      : UTF-8
    Codec ID                    : S_TEXT/UTF8
    Codec ID/Info               : UTF-8 Plain Text
    Duration                    : 1 h 29 min
    Bit rate                    : 8 b/s
    Count of elements           : 151
    Stream size                 : 5.35 KiB (0%)
    Title                       : Forzados [CinemaniaHDD]
    Language                    : Spanish
    Default                     : Yes
    Forced                      : Yes

    Text #2
    ID                          : 5
    Format                      : UTF-8
    Codec ID                    : S_TEXT/UTF8
    Codec ID/Info               : UTF-8 Plain Text
    Duration                    : 1 h 29 min
    Bit rate                    : 62 b/s
    Count of elements           : 1460
    Stream size                 : 41.3 KiB (0%)
    Title                       : Español latino [CinemaniaHDD]
    Language                    : Spanish
    Default                     : No
    Forced                      : No

    Menu
    00:00:00.000                : en:Capítulo 01
    00:05:06.555                : en:Capítulo 02
    00:09:24.230                : en:Capítulo 03
    00:12:03.596                : en:Capítulo 04
    00:17:21.080                : en:Capítulo 05
    00:20:44.116                : en:Capítulo 06
    00:24:06.111                : en:Capítulo 07
    00:29:48.661                : en:Capítulo 08
    00:35:57.989                : en:Capítulo 09
    00:41:56.472                : en:Capítulo 10
    00:47:48.322                : en:Capítulo 11
    00:54:17.211                : en:Capítulo 12
    01:05:50.987                : en:Capítulo 13
    01:11:06.511                : en:Capítulo 14
    01:15:14.760                : en:Capítulo 15
    01:21:43.856                : en:Capítulo 16

     

  • Peso: 2.56 GiB

Sinopsis

El corazón de París esconde un secreto mortal. Al otro lado del mundo, en Los Ángeles, el embajador Han está a punto de divulgar ese secreto. Tiene en su poder información sobre los mecanismos internos de las Tríadas, el sindicato del crimen más poderoso y más conocido del mundo. El embajador ha descubierto la identidad de Shy Shen, elemento clave del vasto anillo del crimen, y está a punto de revelarlo al Tribunal Penal Mundial, hasta que la bala de un asesino lo silencia para siempre. Las Tríadas harán cualquier cosa para asegurarse de que sus secretos permanezcan enterrados, y solamente existe una esperanza para poder detenerlos… El detective Carter (Chris Tucker), del departamento de policía de Los Ángeles, y el inspector chino Lee (Jackie Chan) viajan a París para detener una conspiración criminal a nivel global y para salvar la vida de un viejo amigo: la hija del embajador Han: Soo Yung.

Ficha técnica

Video trailer de la película

Enlaces de descarga

Rip de Bluray

Descargar Una pareja explosiva 3 (2007) HD 1080p Latino




Aportes de DPeliculasHDmega la pass es:dpeliculashdmega.org Aportes de CinemaniaHD la pass es:cinemaniahdd.com
Guardado en : Acción , Comedia , Crimen , HD 1080p

Películas relacionadas

  • El Perfumista (2022) NF WEB-DL 1080p Latino

    El Perfumista (2022) NF WEB-DL 1080p Latino

    2022
    El Perfumista (2022) NF WEB-DL 1080p Latino

    1h 36m 2022

    Descargar El Perfumista (2022) NF WEB-DL 1080p Latino. Para recuperar su sentido del olfato y el afecto...

    Director: Nils Willbrandt

    Género: Crimen

    Actores: Sólveig Arnarsdóttir

  • La familia Monster (2022) HD 1080p Latino

    La familia Monster (2022) HD 1080p Latino

    2022
    La familia Monster (2022) HD 1080p Latino

    1h 49m 2022

    Descargar La familia Monster (2022) HD 1080p Latino. Reboot de "The Munsters", que sigue las desventuras...

    Director: Rob Zombie

    Género: Comedia

    Actores: Tomas Boykin

  • La familia Monster (2022) REMUX 1080p Latino

    La familia Monster (2022) REMUX 1080p Latino

    2022
    La familia Monster (2022) REMUX 1080p Latino

    1h 49m 2022

    Descargar La familia Monster (2022) REMUX 1080p Latino. Reboot de "The Munsters", que sigue las desventuras...

    Director: Rob Zombie

    Género: Comedia

    Actores: Tomas Boykin

descargar Una pareja explosiva 3 (2007) HD 1080p Latino 1080p 1080p gratis, Una pareja explosiva 3 (2007) HD 1080p Latino 1080p mega 1 link, Una pareja explosiva 3 (2007) HD 1080p Latino 1080p pelicula completa, descargar Una pareja explosiva 3 (2007) HD 1080p Latino 1080p gratis en mega.

Una pareja explosiva 3 (2007) HD 1080p Latino pelicula full hd, Una pareja explosiva 3 (2007) HD 1080p Latino mega latino, Una pareja explosiva 3 (2007) HD 1080p Latino 4k latino, Una pareja explosiva 3 (2007) HD 1080p Latino pelicula completa, Una pareja explosiva 3 (2007) HD 1080p Latino descargar gratis, descargar Una pareja explosiva 3 (2007) HD 1080p Latino pelicula latino, Una pareja explosiva 3 (2007) HD 1080p Latino 1 link mega, Una pareja explosiva 3 (2007) HD 1080p Latino 1 link google drive, Una pareja explosiva 3 (2007) HD 1080p Latino hd 1080p latino.
Comentarios 0