×

¿Problemas para descargar con Mozilla, EDGE? Deshabilita la opción "Abrir vinculos en una pestaña nueva" tal como lo muestra ésta imagen.

Una pareja explosiva 2 (2001) Full HD 1080p Latino

3.581 vistas

Información de Una pareja explosiva 2 (2001) Full HD 1080p Latino

Datos de la película

  • Calidad: Full 1080p
  • Audio: Se especifica abajo de la Sinopsis
  • Subtitulos: Español Latino PGS - Ingles PGS
  • Resolución: 1920x1080
  • Formato: MKV
  • Codec: H.264
  • Encoder: cinemaniahdd
  • Mediainfo: Clic para Mostrar Datos Ver
  • Una Pareja Explosiva 2 (2001) Full HD 1080p Latino [CNMNHDD].mkv
    Format                      : Matroska
    Format version              : Version 4
    File size                   : 8.77 GiB
    Duration                    : 1 h 30 min
    Overall bit rate            : 13.9 Mb/s
    Movie name                  : Una Pareja Explosiva 2 (2001) Full HD - CinemaniaHDD.Net
    Encoded date                : UTC 2020-08-24 13:55:47
    Writing application         : mkvmerge v46.0.0 ('No Deeper Escape') 64-bit
    Writing library             : libebml v1.3.10 + libmatroska v1.5.2

    Video
    ID                          : 1
    Format                      : AVC
    Format/Info                 : Advanced Video Codec
    Format profile              : High@L4.1
    Format settings             : CABAC / 4 Ref Frames
    Format settings, CABAC      : Yes
    Format settings, Reference  : 4 frames
    Codec ID                    : V_MPEG4/ISO/AVC
    Duration                    : 1 h 30 min
    Bit rate                    : 11.1 Mb/s
    Width                       : 1 920 pixels
    Height                      : 1 080 pixels
    Display aspect ratio        : 16:9
    Frame rate mode             : Constant
    Frame rate                  : 23.976 (24000/1001) FPS
    Color space                 : YUV
    Chroma subsampling          : 4:2:0
    Bit depth                   : 8 bits
    Scan type                   : Progressive
    Bits/(Pixel*Frame)          : 0.224
    Stream size                 : 7.01 GiB (80%)
    Title                       : CinemaniaHDD
    Writing library             : x264 core 157 r2935 545de2f
    Encoding settings           : cabac=1 / ref=4 / deblock=1:0:0 / analyse=0x3:0x133 / me=tesa / subme=11 / psy=1 / psy_rd=1.00:0.00 / mixed_ref=1 / me_range=24 / chroma_me=1 / trellis=2 / 8x8dct=1 / cqm=0 / deadzone=21,11 / fast_pskip=0 / chroma_qp_offset=-2 / threads=24 / lookahead_threads=6 / sliced_threads=0 / nr=0 / decimate=1 / interlaced=0 / bluray_compat=0 / constrained_intra=0 / bframes=16 / b_pyramid=2 / b_adapt=2 / b_bias=0 / direct=3 / weightb=1 / open_gop=0 / weightp=2 / keyint=240 / keyint_min=24 / scenecut=40 / intra_refresh=0 / rc_lookahead=60 / rc=crf / mbtree=1 / crf=20.0 / qcomp=0.60 / qpmin=0 / qpmax=69 / qpstep=4 / vbv_maxrate=62500 / vbv_bufsize=78125 / crf_max=0.0 / nal_hrd=none / filler=0 / ip_ratio=1.40 / aq=1:1.00
    Default                     : Yes
    Forced                      : No
    Color range                 : Limited
    Color primaries             : BT.709
    Transfer characteristics    : BT.709
    Matrix coefficients         : BT.709

    Audio #1
    ID                          : 2
    Format                      : AC-3
    Format/Info                 : Audio Coding 3
    Commercial name             : Dolby Digital
    Codec ID                    : A_AC3
    Duration                    : 1 h 30 min
    Bit rate mode               : Constant
    Bit rate                    : 640 kb/s
    Channel(s)                  : 6 channels
    Channel layout              : L R C LFE Ls Rs
    Sampling rate               : 48.0 kHz
    Frame rate                  : 31.250 FPS (1536 SPF)
    Compression mode            : Lossy
    Delay relative to video     : -5 ms
    Stream size                 : 412 MiB (5%)
    Title                       : Español latino [CinemaniaHDD]
    Language                    : Spanish
    Service kind                : Complete Main
    Default                     : Yes
    Forced                      : No

    Audio #2
    ID                          : 3
    Format                      : E-AC-3
    Format/Info                 : Enhanced AC-3
    Commercial name             : Dolby Digital Plus
    Codec ID                    : A_EAC3
    Duration                    : 1 h 30 min
    Bit rate mode               : Constant
    Bit rate                    : 640 kb/s
    Channel(s)                  : 6 channels
    Channel layout              : L R C LFE Ls Rs
    Sampling rate               : 48.0 kHz
    Frame rate                  : 31.250 FPS (1536 SPF)
    Compression mode            : Lossy
    Delay relative to video     : 2 s 107 ms
    Stream size                 : 412 MiB (5%)
    Title                       : Español latino - E-AC3 [CinemaniaHDD]
    Language                    : Spanish
    Service kind                : Complete Main
    Default                     : No
    Forced                      : No

    Audio #3
    ID                          : 4
    Format                      : DTS
    Format/Info                 : Digital Theater Systems
    Codec ID                    : A_DTS
    Duration                    : 1 h 30 min
    Bit rate mode               : Constant
    Bit rate                    : 1 509 kb/s
    Channel(s)                  : 6 channels
    Channel layout              : C L R Ls Rs LFE
    Sampling rate               : 48.0 kHz
    Frame rate                  : 93.750 FPS (512 SPF)
    Bit depth                   : 24 bits
    Compression mode            : Lossy
    Delay relative to video     : -5 ms
    Stream size                 : 973 MiB (11%)
    Title                       : Inglés [CinemaniaHDD]
    Language                    : English
    Default                     : No
    Forced                      : No

    Text #1
    ID                          : 5
    Format                      : UTF-8
    Codec ID                    : S_TEXT/UTF8
    Codec ID/Info               : UTF-8 Plain Text
    Duration                    : 59 min 50 s
    Bit rate                    : 0 b/s
    Count of elements           : 11
    Stream size                 : 276 Bytes (0%)
    Title                       : Forzados [CinemaniaHDD]
    Language                    : Spanish
    Default                     : Yes
    Forced                      : Yes

    Text #2
    ID                          : 6
    Format                      : UTF-8
    Codec ID                    : S_TEXT/UTF8
    Codec ID/Info               : UTF-8 Plain Text
    Duration                    : 1 h 27 min
    Bit rate                    : 59 b/s
    Count of elements           : 1141
    Stream size                 : 38.4 KiB (0%)
    Title                       : Español latino [CinemaniaHDD]
    Language                    : Spanish
    Default                     : No
    Forced                      : No

    Text #3
    ID                          : 7
    Format                      : UTF-8
    Codec ID                    : S_TEXT/UTF8
    Codec ID/Info               : UTF-8 Plain Text
    Duration                    : 1 h 29 min
    Bit rate                    : 69 b/s
    Count of elements           : 1416
    Stream size                 : 45.1 KiB (0%)
    Title                       : Inglés [CinemaniaHDD]
    Language                    : English
    Default                     : No
    Forced                      : No

    Menu
    00:00:00.000                : en:Deadly Delivery
    00:04:37.235                : en:Triad Club
    00:13:30.601                : en:Heaven On Earth
    00:21:42.884                : en:Bigger than Ricky Tan
    00:27:48.833                : en:Out to Sea
    00:33:22.917                : en:Tan Overboard
    00:38:50.244                : en:Follow the Rich White Man
    00:47:11.078                : en:Crenshaw Kitchen
    00:51:18.116                : en:Road Trip
    00:58:56.241                : en:Red Dragon
    01:03:52.036                : en:Let's Play Some Craps!
    01:08:59.093                : en:An Explosive Situation
    01:14:51.570                : en:Carter v. Hu Li
    01:17:29.603                : en:Just Like Your Father
    01:22:03.335                : en:Goodbye?
    01:24:38.114                : en:Outtakes
    01:30:06.776                : en:End Credits

     

  • Peso: 8.77 GiB

Sinopsis

El detective James Carter se encuentra de vacaciones en Hong Kong con su buen amigo el detective Lee. Mientras Carter está ansioso por dedicarse a la juerga y las mujeres, Lee tiene que enfrentarse con un jefe de las Tríadas, responsable del asesinato de dos funcionarios de la embajada norteamericana. Conforme avancen en la investigación, descubrirán una trama de distribución de billetes falsos.

Español Latino AC3 5.1 BD – Español Latino E-AC3 5.1 NF – Ingles DTS 5.1 BD

Ficha técnica

Video trailer de la película

Enlaces de descarga

Rip de Bluray

Descargar Una pareja explosiva 2 (2001) Full HD 1080p Latino




Aportes de DPeliculasHDmega la pass es:dpeliculashdmega.org Aportes de CinemaniaHD la pass es:cinemaniahdd.com

Películas relacionadas

  • Tren Bala (2022) WEB-DL 4K UHD HDR Latino

    Tren Bala (2022) WEB-DL 4K UHD HDR Latino

    2022
    Tren Bala (2022) WEB-DL 4K UHD HDR Latino

    2h 7m 2022

    Descargar Tren Bala (2022) WEB-DL 4K UHD HDR Latino. El desafortunado asesino "Catarina" está decidido...

    Director: Paul Barry

    Género: 4K HDR

    Actores: Zooey Miyoshi

  • Tren Bala (2022) AMZN WEB-DL 1080p Latino

    Tren Bala (2022) AMZN WEB-DL 1080p Latino

    2022
    Tren Bala (2022) AMZN WEB-DL 1080p Latino

    2h 7m 2022

    Descargar Tren Bala (2022) AMZN WEB-DL 1080p Latino. Cinco asesinos a sueldo se encuentran a bordo de...

    Director: Paul Barry

    Género: Acción

    Actores: Zooey Miyoshi

  • Rick y Morty (2022) Temporada 6 WEB-DL 1080p Latino

    Rick y Morty (2022) Temporada 6 WEB-DL 1080p Latino

    2013
    Rick y Morty (2022) Temporada 6 WEB-DL 1080p Latino

    0h 22m 2013

    Comedia animada que narra las aventuras de un científico loco Rick Sánchez, que regresa después de...

    Director: Justin Roiland

    Género: Action & Adventure

    Actores: Spencer Grammer

  • Athena (2022) NF WEB-DL 1080p Latino

    Athena (2022) NF WEB-DL 1080p Latino

    2022
    Athena (2022) NF WEB-DL 1080p Latino

    1h 37m 2022

    Descargar Athena (2022) NF WEB-DL 1080p Latino. Horas después de la trágica muerte de su hermano menor...

    Director: Romain Gavras

    Género: Acción

    Actores: Tarek Haddaji

descargar Una pareja explosiva 2 (2001) Full HD 1080p Latino Full 1080p 1080p gratis, Una pareja explosiva 2 (2001) Full HD 1080p Latino Full 1080p mega 1 link, Una pareja explosiva 2 (2001) Full HD 1080p Latino Full 1080p pelicula completa, descargar Una pareja explosiva 2 (2001) Full HD 1080p Latino Full 1080p gratis en mega.

Una pareja explosiva 2 (2001) Full HD 1080p Latino pelicula full hd, Una pareja explosiva 2 (2001) Full HD 1080p Latino mega latino, Una pareja explosiva 2 (2001) Full HD 1080p Latino 4k latino, Una pareja explosiva 2 (2001) Full HD 1080p Latino pelicula completa, Una pareja explosiva 2 (2001) Full HD 1080p Latino descargar gratis, descargar Una pareja explosiva 2 (2001) Full HD 1080p Latino pelicula latino, Una pareja explosiva 2 (2001) Full HD 1080p Latino 1 link mega, Una pareja explosiva 2 (2001) Full HD 1080p Latino 1 link google drive, Una pareja explosiva 2 (2001) Full HD 1080p Latino hd 1080p latino.
Comentarios 6
  • ocpgaiden - 24 agosto, 2020

    Gracias y saludos

  • Tio Higuera - 28 diciembre, 2017

    buena pelicula, gracias.

  • criss - 27 diciembre, 2017

    gracias por ambas pelis. espero suban las tres

    • Dpelis2 - 27 diciembre, 2017

      Pronto Saludos

  • luis - 25 diciembre, 2017

    gracias por estos aportes cuando subiras la tercera parte¿

    • Dpelis2 - 26 diciembre, 2017

      pronto