×

¿Problemas para descargar con Mozilla, EDGE? Deshabilita la opción "Abrir vinculos en una pestaña nueva" tal como lo muestra ésta imagen.

Una pareja explosiva (1998) HD 1080p Latino

459 vistas

Información de Una pareja explosiva (1998) HD 1080p Latino

Datos de la película

  • Calidad: 1080p
  • Audio: Español Latino AC3 2.0 BLURAY - Ingles AC3 5.1 BLURAY
  • Subtitulos: Español Latino SRT- FORZADOS SRT
  • Resolución: 1920x800
  • Formato: MKV
  • Codec: H.264
  • Encoder: cinemaniahdd
  • Mediainfo: Clic para Mostrar Datos Ver
  • Una Pareja Explosiva (1998) HD 1080p Latino [CNMNHDD].mkv
    Format                      : Matroska
    Format version              : Version 4
    File size                   : 2.85 GiB
    Duration                    : 1 h 37 min
    Overall bit rate            : 4 164 kb/s
    Movie name                  : Una Pareja Explosiva (1998) HD - CinemaniaHDD.Net
    Encoded date                : UTC 2020-08-24 14:09:54
    Writing application         : mkvmerge v46.0.0 ('No Deeper Escape') 64-bit
    Writing library             : libebml v1.3.10 + libmatroska v1.5.2

    Video
    ID                          : 1
    Format                      : AVC
    Format/Info                 : Advanced Video Codec
    Format profile              : Main@L4
    Format settings             : CABAC / 5 Ref Frames
    Format settings, CABAC      : Yes
    Format settings, Reference  : 5 frames
    Codec ID                    : V_MPEG4/ISO/AVC
    Duration                    : 1 h 37 min
    Bit rate                    : 3 500 kb/s
    Width                       : 1 920 pixels
    Height                      : 784 pixels
    Display aspect ratio        : 2.40:1
    Frame rate mode             : Constant
    Frame rate                  : 23.976 (24000/1001) FPS
    Color space                 : YUV
    Chroma subsampling          : 4:2:0
    Bit depth                   : 8 bits
    Scan type                   : Progressive
    Bits/(Pixel*Frame)          : 0.097
    Stream size                 : 2.36 GiB (83%)
    Title                       : CinemaniaHDD
    Writing library             : x264 core 157 r2935 545de2f
    Encoding settings           : cabac=1 / ref=5 / deblock=1:0:0 / analyse=0x1:0x111 / me=hex / subme=8 / psy=1 / psy_rd=1.00:0.00 / mixed_ref=1 / me_range=16 / chroma_me=1 / trellis=2 / 8x8dct=0 / cqm=0 / deadzone=21,11 / fast_pskip=1 / chroma_qp_offset=-2 / threads=24 / lookahead_threads=4 / sliced_threads=0 / nr=0 / decimate=1 / interlaced=0 / bluray_compat=0 / constrained_intra=0 / bframes=3 / b_pyramid=2 / b_adapt=1 / b_bias=0 / direct=3 / weightb=1 / open_gop=0 / weightp=2 / keyint=240 / keyint_min=24 / scenecut=40 / intra_refresh=0 / rc_lookahead=50 / rc=abr / mbtree=1 / bitrate=3500 / ratetol=1.0 / qcomp=0.60 / qpmin=0 / qpmax=69 / qpstep=4 / vbv_maxrate=20000 / vbv_bufsize=25000 / nal_hrd=none / filler=0 / ip_ratio=1.40 / aq=1:1.00
    Default                     : Yes
    Forced                      : No
    Color range                 : Limited
    Color primaries             : BT.709
    Transfer characteristics    : BT.709
    Matrix coefficients         : BT.709

    Audio #1
    ID                          : 2
    Format                      : AC-3
    Format/Info                 : Audio Coding 3
    Commercial name             : Dolby Digital
    Codec ID                    : A_AC3
    Duration                    : 1 h 37 min
    Bit rate mode               : Constant
    Bit rate                    : 256 kb/s
    Channel(s)                  : 2 channels
    Channel layout              : L R
    Sampling rate               : 48.0 kHz
    Frame rate                  : 31.250 FPS (1536 SPF)
    Compression mode            : Lossy
    Delay relative to video     : -5 ms
    Stream size                 : 179 MiB (6%)
    Title                       : Español latino [CinemaniaHDD]
    Language                    : Spanish
    Service kind                : Complete Main
    Default                     : Yes
    Forced                      : No

    Audio #2
    ID                          : 3
    Format                      : AC-3
    Format/Info                 : Audio Coding 3
    Commercial name             : Dolby Digital
    Codec ID                    : A_AC3
    Duration                    : 1 h 37 min
    Bit rate mode               : Constant
    Bit rate                    : 448 kb/s
    Channel(s)                  : 6 channels
    Channel layout              : L R C LFE Ls Rs
    Sampling rate               : 48.0 kHz
    Frame rate                  : 31.250 FPS (1536 SPF)
    Compression mode            : Lossy
    Delay relative to video     : -5 ms
    Stream size                 : 313 MiB (11%)
    Title                       : Inglés [CinemaniaHDD]
    Language                    : English
    Service kind                : Complete Main
    Default                     : No
    Forced                      : No

    Text #1
    ID                          : 4
    Format                      : UTF-8
    Codec ID                    : S_TEXT/UTF8
    Codec ID/Info               : UTF-8 Plain Text
    Duration                    : 1 h 34 min
    Bit rate                    : 1 b/s
    Count of elements           : 42
    Stream size                 : 1.27 KiB (0%)
    Title                       : Forzados [CinemaniaHDD]
    Language                    : Spanish
    Default                     : Yes
    Forced                      : Yes

    Text #2
    ID                          : 5
    Format                      : UTF-8
    Codec ID                    : S_TEXT/UTF8
    Codec ID/Info               : UTF-8 Plain Text
    Duration                    : 1 h 34 min
    Bit rate                    : 53 b/s
    Count of elements           : 1074
    Stream size                 : 37.2 KiB (0%)
    Title                       : Español latino [CinemaniaHDD]
    Language                    : Spanish
    Default                     : No
    Forced                      : No

    Menu
    00:00:00.000                : :Chapter 1
    00:02:28.023                : :Chapter 2
    00:04:01.742                : :Chapter 3
    00:06:10.787                : :Chapter 4
    00:09:28.902                : :Chapter 5
    00:12:03.306                : :Chapter 6
    00:15:16.958                : :Chapter 7
    00:17:11.697                : :Chapter 8
    00:20:01.701                : :Chapter 9
    00:22:53.581                : :Chapter 10
    00:27:04.456                : :Chapter 11
    00:29:16.964                : :Chapter 12
    00:34:39.578                : :Chapter 13
    00:35:50.482                : :Chapter 14
    00:38:46.908                : :Chapter 15
    00:41:35.326                : :Chapter 16
    00:43:32.360                : :Chapter 17
    00:46:48.889                : :Chapter 18
    00:48:42.294                : :Chapter 19
    00:51:11.902                : :Chapter 20
    00:54:45.866                : :Chapter 21
    00:57:35.077                : :Chapter 22
    00:59:36.281                : :Chapter 23
    01:02:47.681                : :Chapter 24
    01:06:05.753                : :Chapter 25
    01:08:14.132                : :Chapter 26
    01:10:50.163                : :Chapter 27
    01:13:07.925                : :Chapter 28
    01:16:33.380                : :Chapter 29
    01:18:47.139                : :Chapter 30
    01:22:06.755                : :Chapter 31
    01:23:43.977                : :Chapter 32
    01:25:58.570                : :Chapter 33
    01:28:01.276                : :Chapter 34
    01:29:57.392                : :Chapter 35
    01:32:10.775                : :Chapter 36
    01:35:16.836                : :Chapter 37

     

  • Peso: 2.85 GiB

Sinopsis

Dos detectives diferentes son asignados en un mismo caso. Ambos tendrán que adaptarse a las costumbres del otro para poder concluir su trabajo con éxito, pero no va a ser una tarea fácil. El detective inspector Lee (Jackie Chan) es el rey de las artes marciales y pertenece a la Royal Hong Kong Police. Su pupila preferida es la hija de once años del Cónsul chino, de la cual el inspector Lee es su guardaespaldas y su mejor amigo. Esta muchacha es capturada y llevada a los Estados Unidos por un peligroso grupo criminal. Hasta allí tendrá que viajar el inspector y, donde se unirá a la investigación con un departamento del FBI y, concretamente, al detective James Carter (Tucker), un arrogante e impulsivo agente de policía. La explosiva pareja tendrá que enfrentarse a una banda de criminales muy peligrosa, y contarán con la ayuda de Tania Johnson (Elizabeth Peña), una experta en artefactos explosivos.

Ficha técnica

Video trailer de la película

Enlaces de descarga

Rip de Bluray

Descargar Una pareja explosiva (1998) HD 1080p Latino




Aportes de DPeliculasHDmega la pass es:dpeliculashdmega.org Aportes de CinemaniaHD la pass es:cinemaniahdd.com
Guardado en : Acción , Comedia , Crimen , HD 1080p

Películas relacionadas

  • Jaula Mental (2022) HD 1080p Latino

    Jaula Mental (2022) HD 1080p Latino

    2022
    Jaula Mental (2022) HD 1080p Latino

    1h 47m 2022

    Descargar Jaula Mental (2022) HD 1080p Latino. Cuando un asesino que imita otros crímenes comienza a...

    Director: Mauro Borrelli

    Género: Crimen

    Actores: Victoria Fox

  • Jaula Mental (2022) PLACEBO Full HD 1080p Latino

    Jaula Mental (2022) PLACEBO Full HD 1080p Latino

    2022
    Jaula Mental (2022) PLACEBO Full HD 1080p Latino

    1h 47m 2022

    Descargar Jaula Mental (2022) PLACEBO Full HD 1080p Latino. Cuando un asesino que imita otros crímenes...

    Director: Mauro Borrelli

    Género: Crimen

    Actores: Victoria Fox

  • Jaula Mental (2022) REMUX 1080p Latino

    Jaula Mental (2022) REMUX 1080p Latino

    2022
    Jaula Mental (2022) REMUX 1080p Latino

    1h 47m 2022

    Descargar Jaula Mental (2022) REMUX 1080p Latino. Cuando un asesino que imita otros crímenes comienza...

    Director: Mauro Borrelli

    Género: Crimen

    Actores: Victoria Fox

  • Transfusion (2023) HD 1080p Latino

    Transfusion (2023) HD 1080p Latino

    2023
    Transfusion (2023) HD 1080p Latino

    1h 45m 2023

    Descargar Transfusion (2023) HD 1080p Latino. Un antiguo agente de las Fuerzas Especiales se ve empujado...

    Director: Matt Nable

    Género: Crimen

    Actores: Trystan Go

  • Transfusion (2023) PLACEBO Full HD 1080p Latino

    Transfusion (2023) PLACEBO Full HD 1080p Latino

    2023
    Transfusion (2023) PLACEBO Full HD 1080p Latino

    1h 45m 2023

    Descargar Transfusion (2023) PLACEBO Full HD 1080p Latino. Un antiguo agente de las Fuerzas Especiales...

    Director: Matt Nable

    Género: Crimen

    Actores: Trystan Go

descargar Una pareja explosiva (1998) HD 1080p Latino 1080p 1080p gratis, Una pareja explosiva (1998) HD 1080p Latino 1080p mega 1 link, Una pareja explosiva (1998) HD 1080p Latino 1080p pelicula completa, descargar Una pareja explosiva (1998) HD 1080p Latino 1080p gratis en mega.

Una pareja explosiva (1998) HD 1080p Latino pelicula full hd, Una pareja explosiva (1998) HD 1080p Latino mega latino, Una pareja explosiva (1998) HD 1080p Latino 4k latino, Una pareja explosiva (1998) HD 1080p Latino pelicula completa, Una pareja explosiva (1998) HD 1080p Latino descargar gratis, descargar Una pareja explosiva (1998) HD 1080p Latino pelicula latino, Una pareja explosiva (1998) HD 1080p Latino 1 link mega, Una pareja explosiva (1998) HD 1080p Latino 1 link google drive, Una pareja explosiva (1998) HD 1080p Latino hd 1080p latino.
Comentarios 0