×

¿Problemas para descargar con Mozilla, EDGE? Deshabilita la opción "Abrir vinculos en una pestaña nueva" tal como lo muestra ésta imagen.

Una noche en el fin del mundo (2013) Full 1080p Latino

2.140 vistas

Información de Una noche en el fin del mundo (2013) Full 1080p Latino

9DBKqINsayQRZU0Ry0HFjeps5XJ

Datos de la película

  • Calidad: Full 1080p
  • Audio: Español Latino DTS 5.1 BLURAY - Ingles DTS 5.1 BLURAY
  • Subtitulos: Español Latino PGS - Ingles PGS
  • Resolución: 1920X1080p
  • Formato: MKV
  • Codec: H.264
  • Encoder: Dracarys
  • Mediainfo: Clic para Mostrar Datos Ver
  • Format                                   : Matroska
    Format version                           : Version 4 / Version 2
    File size                                : 8.17 GiB
    Duration                                 : 1 h 49 min
    Overall bit rate                         : 10.7 Mb/s
    Movie name                               : CinemaniaHDD.com
    Encoded date                             : UTC 2017-12-25 08:10:36 / UTC 2017-12-23T14:26:11Z
    Writing application                      : mkvmerge v15.0.0 ('Duel with the Devil') 64-bit
    Writing library                          : libebml v1.3.5 + libmatroska v1.4.5 / Lavf57.7.2

    Video
    ID                                       : 1
    Format                                   : AVC
    Format/Info                              : Advanced Video Codec
    Format profile                           : High@L4.1
    Format settings                          : CABAC / 4 Ref Frames
    Format settings, CABAC                   : Yes
    Format settings, RefFrames               : 4 frames
    Codec ID                                 : V_MPEG4/ISO/AVC
    Duration                                 : 1 h 49 min
    Bit rate                                 : 8 223 kb/s
    Width                                    : 1 920 pixels
    Height                                   : 1 080 pixels
    Display aspect ratio                     : 16:9
    Frame rate mode                          : Constant
    Frame rate                               : 23.976 (24000/1001) FPS
    Color space                              : YUV
    Chroma subsampling                       : 4:2:0
    Bit depth                                : 8 bits
    Scan type                                : Progressive
    Bits/(Pixel*Frame)                       : 0.165
    Stream size                              : 6.27 GiB (77%)
    Title                                    : Una noche en el fin del mundo (2013) Full 1080p Latino
    Writing library                          : x264 core 148 r2708 86b7198
    Encoding settings                        : cabac=1 / ref=4 / deblock=1:0:0 / analyse=0x3:0x133 / me=esa / subme=10 / psy=1 / psy_rd=1.00:0.00 / mixed_ref=1 / me_range=24 / chroma_me=1 / trellis=2 / 8x8dct=1 / cqm=0 / deadzone=21,11 / fast_pskip=1 / chroma_qp_offset=-2 / threads=34 / lookahead_threads=5 / sliced_threads=0 / nr=0 / decimate=1 / interlaced=0 / bluray_compat=0 / constrained_intra=0 / bframes=8 / b_pyramid=2 / b_adapt=2 / b_bias=0 / direct=3 / weightb=1 / open_gop=0 / weightp=2 / keyint=240 / keyint_min=24 / scenecut=40 / intra_refresh=0 / rc_lookahead=60 / rc=crf / mbtree=1 / crf=20.0 / qcomp=0.60 / qpmin=0 / qpmax=69 / qpstep=4 / vbv_maxrate=62500 / vbv_bufsize=78125 / crf_max=0.0 / nal_hrd=none / filler=0 / ip_ratio=1.40 / aq=1:1.00
    Language                                 : English
    Default                                  : Yes
    Forced                                   : No
    Color range                              : Limited
    Color primaries                          : BT.709
    Transfer characteristics                 : BT.709
    Matrix coefficients                      : BT.709
    Statistics Tags Issue                    : mkvmerge v15.0.0 ('Duel with the Devil') 64-bit 2017-12-25 08:10:36 / mkvmerge v15.0.0 ('Duel with the Devil') 64-bit 2017-12-25 08:10:36 / UTC 2017-12-23T14:26:11Z
    FromStats_BitRate                        : 8402275
    FromStats_Duration                       : 01:49:07.500000000
    FromStats_FrameCount                     : 156983
    FromStats_StreamSize                     : 6876737089

    Audio #1
    ID                                       : 2
    Format                                   : DTS
    Format/Info                              : Digital Theater Systems
    Mode                                     : 16
    Format settings, Endianness              : Big
    Codec ID                                 : A_DTS
    Duration                                 : 1 h 49 min
    Bit rate mode                            : Constant
    Bit rate                                 : 768 kb/s
    Channel(s)                               : 6 channels
    Channel positions                        : Front: L C R, Side: L R, LFE
    Sampling rate                            : 48.0 kHz
    Frame rate                               : 93.750 FPS (512 SPF)
    Bit depth                                : 24 bits
    Compression mode                         : Lossy
    Stream size                              : 599 MiB (7%)
    Language                                 : Spanish
    Default                                  : Yes
    Forced                                   : No
    Statistics Tags Issue                    : mkvmerge v15.0.0 ('Duel with the Devil') 64-bit 2017-12-25 08:10:36 / mkvmerge v15.0.0 ('Duel with the Devil') 64-bit 2017-12-25 08:10:36 / UTC 2017-12-23T14:26:11Z
    FromStats_BitRate                        : 767999
    FromStats_Duration                       : 01:49:07.542000000
    FromStats_FrameCount                     : 613832
    FromStats_StreamSize                     : 628563968

    Audio #2
    ID                                       : 3
    Format                                   : DTS
    Format/Info                              : Digital Theater Systems
    Mode                                     : 16
    Format settings, Endianness              : Big
    Codec ID                                 : A_DTS
    Duration                                 : 1 h 49 min
    Bit rate mode                            : Constant
    Bit rate                                 : 1 509 kb/s
    Channel(s)                               : 6 channels
    Channel positions                        : Front: L C R, Side: L R, LFE
    Sampling rate                            : 48.0 kHz
    Frame rate                               : 93.750 FPS (512 SPF)
    Bit depth                                : 24 bits
    Compression mode                         : Lossy
    Stream size                              : 1.15 GiB (14%)
    Language                                 : Spanish
    Default                                  : No
    Forced                                   : No
    Statistics Tags Issue                    : mkvmerge v15.0.0 ('Duel with the Devil') 64-bit 2017-12-25 08:10:36 / mkvmerge v15.0.0 ('Duel with the Devil') 64-bit 2017-12-25 08:10:36 / UTC 2017-12-23T14:26:11Z
    FromStats_BitRate                        : 1508999
    FromStats_Duration                       : 01:49:07.542000000
    FromStats_FrameCount                     : 613832
    FromStats_StreamSize                     : 1235029984

    Text #1
    ID                                       : 4
    Format                                   : PGS
    Muxing mode                              : zlib
    Codec ID                                 : S_HDMV/PGS
    Codec ID/Info                            : Picture based subtitle format used on BDs/HD-DVDs
    Language                                 : English
    Default                                  : No
    Forced                                   : No
    Statistics Tags Issue                    : mkvmerge v15.0.0 ('Duel with the Devil') 64-bit 2017-12-25 08:10:36 / mkvmerge v15.0.0 ('Duel with the Devil') 64-bit 2017-12-25 08:10:36 / UTC 2017-12-23T14:26:11Z
    FromStats_BitRate                        : 58441
    FromStats_Duration                       : 01:43:32.248000000
    FromStats_FrameCount                     : 3727
    FromStats_StreamSize                     : 45381931

    Text #2
    ID                                       : 5
    Format                                   : PGS
    Muxing mode                              : zlib
    Codec ID                                 : S_HDMV/PGS
    Codec ID/Info                            : Picture based subtitle format used on BDs/HD-DVDs
    Title                                    : Forzados
    Language                                 : Spanish
    Default                                  : Yes
    Forced                                   : Yes
    Statistics Tags Issue                    : mkvmerge v15.0.0 ('Duel with the Devil') 64-bit 2017-12-25 08:10:36 / mkvmerge v15.0.0 ('Duel with the Devil') 64-bit 2017-12-25 08:10:36 / UTC 2017-12-23T14:26:11Z
    FromStats_BitRate                        : 601
    FromStats_Duration                       : 01:35:43.988000000
    FromStats_FrameCount                     : 44
    FromStats_StreamSize                     : 431835

    Text #3
    ID                                       : 6
    Format                                   : PGS
    Muxing mode                              : zlib
    Codec ID                                 : S_HDMV/PGS
    Codec ID/Info                            : Picture based subtitle format used on BDs/HD-DVDs
    Language                                 : Spanish
    Default                                  : No
    Forced                                   : No
    Statistics Tags Issue                    : mkvmerge v15.0.0 ('Duel with the Devil') 64-bit 2017-12-25 08:10:36 / mkvmerge v15.0.0 ('Duel with the Devil') 64-bit 2017-12-25 08:10:36 / UTC 2017-12-23T14:26:11Z
    FromStats_BitRate                        : 50188
    FromStats_Duration                       : 01:42:59.506000000
    FromStats_FrameCount                     : 3434
    FromStats_StreamSize                     : 38767363

    Menu
    00:00:00.000                             : :00:00:00.000
    00:05:38.338                             : :00:05:38.296
    00:10:33.007                             : :00:10:33.007
    00:15:34.767                             : :00:15:34.767
    00:19:56.696                             : :00:19:56.695
    00:25:24.023                             : :00:25:23.981
    00:30:07.222                             : :00:30:07.180
    00:36:09.751                             : :00:36:09.751
    00:42:40.266                             : :00:42:40.266
    00:46:17.233                             : :00:46:17.233
    00:50:20.017                             : :00:50:20.017
    00:57:20.729                             : :00:57:20.729
    01:02:29.246                             : :01:02:29.204
    01:06:30.820                             : :01:06:30.737
    01:12:17.124                             : :01:12:17.124
    01:18:37.087                             : :01:18:37.004
    01:23:51.193                             : :01:23:51.193
    01:26:45.784                             : :01:26:45.784
    01:35:16.753                             : :01:35:16.753
    01:42:20.217                             : :01:42:20.217

     

  • Peso: 8.17 GiB

Sinopsis

Cinco amigos de la infancia se reúnen después de 20 años porque uno de ellos está empeñado en volver a probar suerte en un maratón alcohólico que nunca pudieron llegar a completar. Gary King, un cuarentón que todavía no ha conseguido superar la adolescencia, convence a sus cuatro reacios amigos y los arrastra a su pueblo natal en un desesperado intento por llegar al famoso pub “The World’s End”. Pero mientras intentan reconciliar el presente con el pasado, empiezan a darse cuenta de que la auténtica lucha debe librarse por el futuro, y no solo el suyo, sino el de toda la humanidad. Llegar al pub “The World’s End” es ahora el último de sus problemas.

Ficha técnica

Video trailer de la película

Enlaces de descarga

Rip de Bluray

Descargar Una noche en el fin del mundo (2013) Full 1080p Latino




Aportes de DPeliculasHDmega la pass es:dpeliculashdmega.org Aportes de CinemaniaHD la pass es:cinemaniahdd.com Aportes recientes:cinemaniahdd.net

Películas relacionadas

descargar Una noche en el fin del mundo (2013) Full 1080p Latino Full 1080p 1080p gratis, Una noche en el fin del mundo (2013) Full 1080p Latino Full 1080p mega 1 link, Una noche en el fin del mundo (2013) Full 1080p Latino Full 1080p pelicula completa, descargar Una noche en el fin del mundo (2013) Full 1080p Latino Full 1080p gratis en mega.

Una noche en el fin del mundo (2013) Full 1080p Latino pelicula full hd, Una noche en el fin del mundo (2013) Full 1080p Latino mega latino, Una noche en el fin del mundo (2013) Full 1080p Latino 4k latino, Una noche en el fin del mundo (2013) Full 1080p Latino pelicula completa, Una noche en el fin del mundo (2013) Full 1080p Latino descargar gratis, descargar Una noche en el fin del mundo (2013) Full 1080p Latino pelicula latino, Una noche en el fin del mundo (2013) Full 1080p Latino 1 link mega, Una noche en el fin del mundo (2013) Full 1080p Latino 1 link google drive, Una noche en el fin del mundo (2013) Full 1080p Latino hd 1080p latino.
Comentarios 1